<?xml version="1.0" standalone="no"?>
<!DOCTYPE svg PUBLIC "-//W3C//DTD SVG 1.1//EN" "http://www.w3.org/Graphics/SVG/1.1/DTD/svg11.dtd" >
<svg xmlns="http://www.w3.org/2000/svg" xmlns:xlink="http://www.w3.org/1999/xlink" version="1.1">
<metadata></metadata>
<defs>
<font id="oscineregular" horiz-adv-x="1167" >
<font-face units-per-em="2048" ascent="1458" descent="-590" />
<missing-glyph horiz-adv-x="425" />
<glyph unicode="&#xd;" horiz-adv-x="425" />
<glyph horiz-adv-x="0" />
<glyph horiz-adv-x="0" />
<glyph unicode=" "  horiz-adv-x="425" />
<glyph unicode="&#x09;" horiz-adv-x="425" />
<glyph unicode="&#xa0;" horiz-adv-x="425" />
<glyph unicode="!" horiz-adv-x="559" d="M158 82v39q0 51 32.5 80.5t85.5 29.5q59 0 92 -29.5t33 -80.5v-39q0 -51 -34 -81t-91 -30q-53 0 -85.5 31t-32.5 80zM190 1417q0 25 8.5 33t37.5 8h88q29 0 37 -8t8 -33q0 -14 -1 -42.5t-1 -43.5l-21 -860q0 -25 -9 -33t-34 -8h-47q-25 0 -34 8t-9 33l-20 860 q0 14 -1.5 43t-1.5 43z" />
<glyph unicode="&#x22;" horiz-adv-x="679" d="M80 1417q0 25 9 33t36 8h96q27 0 36 -8t9 -33q0 -14 -1 -32.5t-1 -28.5l-14 -469q0 -25 -9.5 -33t-33.5 -8h-68q-25 0 -34 8t-9 33l-14 469q0 10 -1 28.5t-1 32.5zM414 1417q0 25 9 33t36 8h96q27 0 36 -8t9 -33q0 -14 -1 -32.5t-1 -28.5l-14 -469q0 -25 -9.5 -33 t-33.5 -8h-68q-25 0 -34 8t-9 33l-14 469q0 10 -1 28.5t-1 32.5z" />
<glyph unicode="#" d="M106 436v49q0 25 6.5 33t28.5 8h166v322h-166q-23 0 -29 8t-6 33v49q0 25 6.5 33t28.5 8h166v254q0 23 8.5 29t32.5 6h51q25 0 33 -6.5t8 -28.5v-254h289v254q0 23 8 29t33 6h51q25 0 33 -6.5t8 -28.5v-254h166q23 0 29 -8t6 -33v-49q0 -25 -6 -33t-29 -8h-166v-322h166 q23 0 29 -8t6 -33v-49q0 -25 -6 -33t-29 -8h-166v-254q0 -23 -8 -29t-33 -6h-51q-25 0 -33 6.5t-8 28.5v254h-289v-254q0 -23 -8 -29t-33 -6h-51q-25 0 -33 6.5t-8 28.5v254h-166q-23 0 -29 8.5t-6 32.5zM440 526h289v322h-289v-322z" />
<glyph unicode="$" d="M127 283q0 23 9 31t36 8h64q27 0 35 -6.5t12 -28.5q20 -84 77.5 -127t155.5 -54v537l-65 19q-322 84 -322 356v10q0 168 101.5 263t285.5 112v135q0 23 8 29t33 6h47q25 0 33 -6t8 -29v-135q115 -8 183.5 -41t115.5 -82q35 -35 54.5 -82t19.5 -94q0 -23 -9.5 -31 t-35.5 -8h-66q-27 0 -35 6t-12 29q-10 68 -66.5 112.5t-148.5 57.5v-512l47 -13q168 -45 258 -136t90 -261v-10q0 -164 -101 -258t-294 -107v-157q0 -23 -8 -29t-33 -6h-47q-25 0 -33 6t-8 29v157q-98 6 -170 32t-121 71q-41 37 -69.5 97.5t-28.5 109.5zM281 1038 q0 -98 52 -154.5t173 -88.5l10 -4v479q-235 -25 -235 -232zM645 104q115 12 175.5 70t60.5 154q0 117 -53.5 181t-182.5 101v-506z" />
<glyph unicode="%" horiz-adv-x="1673" d="M59 874v178q0 61 6.5 103.5t22.5 77.5q74 160 291 159q104 0 171.5 -35.5t113.5 -113.5q16 -33 23 -73t7 -97v-189q0 -59 -6 -100t-24 -78q-74 -154 -285 -153q-223 0 -291 149q-16 35 -22.5 74t-6.5 98zM201 884q0 -117 40 -166t138 -49q94 0 135 50.5t41 164.5v177 q0 115 -42 165t-134 50q-98 0 -138 -49.5t-40 -165.5v-177zM418 14q0 4 8 21l649 1306q10 20 19.5 27.5t25.5 7.5h102q20 0 21 -14q0 -4 -8 -21l-650 -1306q-10 -20 -19 -27.5t-26 -7.5h-102q-20 0 -20 14zM981 305v178q0 61 6.5 103.5t22.5 77.5q74 160 291 159 q104 0 171.5 -35.5t113.5 -113.5q16 -33 23 -73t7 -97v-189q0 -59 -6 -100t-24 -78q-74 -154 -285 -153q-223 0 -291 149q-16 35 -22.5 74t-6.5 98zM1123 315q0 -117 40 -166t138 -49q94 0 135 50.5t41 164.5v177q0 115 -42 165t-134 50q-98 0 -138 -49.5t-40 -165.5v-177z " />
<glyph unicode="&#x26;" horiz-adv-x="1331" d="M121 377v31q0 268 254 354q-104 51 -153.5 133t-49.5 209q0 88 30.5 159.5t87 123t136.5 78t178 26.5q88 0 163 -21.5t128 -60.5t83 -93t30 -120q0 -23 -9.5 -30t-37.5 -7h-66q-23 0 -32 6t-13 23q-14 82 -79.5 128t-166.5 46q-129 0 -201.5 -70.5t-72.5 -195.5 q0 -260 280 -260h58q33 0 32 -41v-62q0 -41 -32 -41h-70q-145 0 -229 -73.5t-84 -202.5v-39q0 -123 91 -195.5t245 -72.5q174 0 249.5 86t75.5 280v320q0 25 6 33t29 8h236q23 0 28.5 -8.5t5.5 -32.5v-62q0 -25 -6 -33t-28 -8h-117v-252q0 -469 -482 -469q-231 0 -364 108.5 t-133 297.5z" />
<glyph unicode="'" horiz-adv-x="346" d="M80 1417q0 25 9 33t36 8h96q27 0 36 -8t9 -33q0 -14 -1 -32.5t-1 -28.5l-14 -469q0 -25 -9.5 -33t-33.5 -8h-68q-25 0 -34 8t-9 33l-14 469q0 10 -1 28.5t-1 32.5z" />
<glyph unicode="(" horiz-adv-x="612" d="M119 231v646q0 141 19.5 240.5t60.5 162.5q35 57 89 98t122 64q23 8 47 12t41 4q23 0 28.5 -8t5.5 -33v-67q0 -20 -6 -28.5t-28 -12.5q-84 -14 -136 -72q-84 -90 -83 -350v-666q0 -260 83 -350q51 -57 136 -72q23 -4 28.5 -12t5.5 -29v-67q0 -25 -6 -33t-28 -8 q-16 0 -41 4t-47 12q-68 23 -122.5 64t-88.5 98q-80 125 -80 403z" />
<glyph unicode=")" horiz-adv-x="612" d="M80 -242q0 20 6 28.5t29 12.5q84 14 135 72q84 90 84 350v666q0 260 -84 350q-51 57 -135 72q-23 4 -29 12t-6 29v67q0 25 6 33t29 8q16 0 40.5 -4t47.5 -12q68 -23 122 -64t89 -98q41 -63 60.5 -162.5t19.5 -240.5v-646q0 -279 -80 -403q-35 -57 -89.5 -98t-121.5 -64 q-23 -8 -47.5 -12t-40.5 -4q-23 0 -29 8t-6 33v67z" />
<glyph unicode="*" horiz-adv-x="733" d="M49 1153q0 4 4 21l21 63q14 39 32 39q10 0 23 -6l190 -107l-20 180q-4 29 -6 51.5t-2 30.5q0 20 9 26.5t36 6.5h59q27 0 36 -6t9 -27q0 -8 -2 -30.5t-6 -51.5l-20 -180l190 107q12 6 23 6q18 0 32 -39l21 -63q4 -16 4 -21q0 -12 -7 -18.5t-30 -10.5l-207 -49l154 -162 q12 -12 16 -19t4 -15q0 -14 -24 -33l-45 -33q-25 -18 -39 -18t-29 26l-108 199l-111 -199q-14 -27 -29 -26q-14 0 -39 18l-45 33q-25 18 -24 33q0 14 20 34l154 162l-207 49q-23 4 -30 10.5t-7 18.5z" />
<glyph unicode="+" d="M156 664v51q0 25 6 33t28 8h326v374q0 23 8 29t33 6h55q25 0 33 -6t8 -29v-374h324q23 0 29 -8.5t6 -32.5v-51q0 -25 -6.5 -33t-28.5 -8h-324v-377q0 -23 -8 -29t-33 -6h-55q-25 0 -33 6t-8 29v377h-326q-23 0 -28.5 8t-5.5 33z" />
<glyph unicode="," horiz-adv-x="499" d="M86 -293q0 4 1 8t7 19l115 264q-39 6 -61.5 37t-22.5 78v16q0 53 34 85t93 32t93 -32t34 -87v-39q0 -41 -15.5 -82t-52.5 -110l-88 -164q-14 -27 -25.5 -34t-35.5 -7h-51q-25 0 -25 16z" />
<glyph unicode="-" horiz-adv-x="770" d="M86 508v88q0 25 6 33t29 8h528q23 0 29 -8t6 -33v-88q0 -25 -6 -33t-29 -8h-528q-23 0 -29 8t-6 33z" />
<glyph unicode="." horiz-adv-x="499" d="M123 88v41q0 53 34 85t93 32t93 -32t34 -85v-41q0 -53 -34 -85t-93 -32t-93 32t-34 85z" />
<glyph unicode="/" horiz-adv-x="647" d="M14 20q0 8 4 21l471 1376q10 29 18.5 35t33.5 6h63q29 0 29 -20q0 -8 -4 -21l-471 -1376q-10 -29 -18.5 -35t-33.5 -6h-63q-29 0 -29 20z" />
<glyph unicode="0" horiz-adv-x="1134" d="M102 526v303q0 109 8.5 176.5t30.5 124.5q109 274 426 275q317 0 426 -270q23 -55 31 -121t8 -174v-303q0 -109 -8 -174.5t-31 -120.5q-109 -271 -426 -271q-319 0 -426 265q-23 53 -31 118.5t-8 171.5zM268 524q0 -219 70 -315t229 -96q160 0 229.5 96t69.5 315v328 q0 219 -69.5 315.5t-229.5 96.5t-229.5 -96.5t-69.5 -315.5v-328z" />
<glyph unicode="1" horiz-adv-x="675" d="M61 1272v63q0 25 9.5 33t33.5 8h345q25 0 34 -8t9 -33v-1294q0 -25 -9.5 -33t-33.5 -8h-76q-25 0 -34 8t-9 33v1190h-226q-25 0 -34 8t-9 33z" />
<glyph unicode="2" horiz-adv-x="1044" d="M80 41v57q0 86 16.5 158t53 133.5t94 113.5t137.5 101l172 103q125 74 178 145.5t53 163.5v24q0 225 -254 226q-119 0 -180 -44t-88 -147q-4 -23 -13 -29t-34 -6h-68q-27 0 -36 8.5t-9 30.5q0 51 24 108.5t58 92.5q119 125 357 125q203 0 310 -90t107 -262v-49 q0 -121 -72.5 -218.5t-240.5 -197.5l-172 -103q-119 -72 -172 -150.5t-53 -182.5h665q25 0 34 -8.5t9 -32.5v-70q0 -25 -9 -33t-34 -8h-790q-43 0 -43 41z" />
<glyph unicode="3" horiz-adv-x="1089" d="M100 289q0 23 9.5 31t35.5 8h70q25 0 34 -6.5t13 -28.5q23 -98 87.5 -140t193.5 -42q135 0 208.5 65.5t73.5 185.5v29q0 117 -71.5 182.5t-200.5 65.5h-57q-25 0 -34 8t-9 33v82q0 25 9 33t34 8h32q283 0 283 231v17q0 106 -65.5 162.5t-192.5 56.5q-123 0 -188.5 -44 t-88.5 -145q-4 -23 -13 -28.5t-34 -5.5h-67q-27 0 -36 8t-9 30q0 47 21.5 102.5t54.5 90.5q59 66 148 96.5t224 30.5q203 0 309.5 -86t106.5 -248v-39q0 -231 -240 -311q256 -47 256 -315v-54q0 -178 -117.5 -279.5t-326.5 -101.5q-260 0 -375 121q-35 35 -56.5 91.5 t-21.5 105.5z" />
<glyph unicode="4" horiz-adv-x="1105" d="M104 348v103q0 23 4.5 36t16.5 31l539 819q16 25 27 32t34 7h109q25 0 34 -8t9 -33v-886h98q25 0 34 -8.5t9 -32.5v-60q0 -25 -9.5 -33t-33.5 -8h-98v-266q0 -25 -9.5 -33t-33.5 -8h-74q-25 0 -34 8t-9 33v266h-570q-25 0 -34 8.5t-9 32.5zM238 449h479v729z" />
<glyph unicode="5" horiz-adv-x="1054" d="M88 272q0 20 9 27.5t38 7.5h68q25 0 33 -7t12 -32q35 -158 260 -157q264 0 264 280v47q0 303 -229 303q-66 0 -117 -17t-113 -58q-25 -18 -67 -19h-76q-25 0 -34 8.5t-9 32.5v647q0 25 9 33t34 8h696q25 0 34 -8t9 -33v-63q0 -25 -9 -33t-34 -8h-594v-443q131 84 295 84 q379 0 379 -405v-76q0 -197 -114.5 -308.5t-315.5 -111.5q-254 0 -354 113q-35 41 -54.5 90t-19.5 98z" />
<glyph unicode="6" horiz-adv-x="1095" d="M102 504v244q0 74 1 128t5.5 96t10.5 75.5t16 70.5q39 139 147.5 213t278.5 74q254 0 352 -109q35 -39 54.5 -87t19.5 -95q0 -20 -9 -27.5t-38 -7.5h-68q-25 0 -33 7.5t-12 31.5q-35 156 -256 156q-150 0 -223 -76q-41 -45 -59.5 -111.5t-18.5 -164.5v-164 q111 129 340 129q193 0 299.5 -102.5t106.5 -286.5v-99q0 -201 -122 -314.5t-335 -113.5q-141 0 -244.5 50.5t-154.5 146.5q-33 61 -45.5 135t-12.5 201zM262 414q0 -150 76 -229t221 -79q293 0 293 302v38q0 160 -68.5 232t-224.5 72q-141 0 -219 -80t-78 -228v-28z" />
<glyph unicode="7" horiz-adv-x="972" d="M39 1272v63q0 25 9 33t34 8h788q25 0 34 -8t9 -33v-82q0 -70 -9 -129t-31.5 -113.5t-58.5 -107.5t-87 -112l-78 -89q-92 -102 -132 -209.5t-40 -248.5v-203q0 -25 -9 -33t-34 -8h-74q-25 0 -34 8t-9 33v152q0 100 11.5 182t35 152.5t62.5 134t94 126.5l78 89 q45 51 74.5 92t47 82t26 84t8.5 96h-672q-25 0 -34 8t-9 33z" />
<glyph unicode="8" horiz-adv-x="1138" d="M92 342v39q0 131 61.5 215t176.5 111q-104 39 -152.5 111.5t-48.5 193.5v43q0 164 117.5 257t322.5 93t323 -93t118 -257v-43q0 -121 -48.5 -194t-152.5 -111q115 -27 176.5 -111t61.5 -215v-39q0 -84 -34 -152.5t-96.5 -116.5t-150.5 -75t-197 -27t-196.5 27t-150 75 t-96.5 116.5t-34 152.5zM260 356q0 -121 80 -185.5t229 -64.5q150 0 230 65t80 185v35q0 111 -85.5 178.5t-224.5 67.5t-224 -67.5t-85 -178.5v-35zM293 1010q0 -111 74.5 -176.5t201.5 -65.5t202 65.5t75 176.5v30q0 111 -74 174.5t-203 63.5t-202.5 -63.5t-73.5 -174.5 v-30z" />
<glyph unicode="9" horiz-adv-x="1095" d="M80 883v114q0 193 122 300.5t335 107.5q141 0 244.5 -50t154.5 -147q33 -61 45 -135t12 -201v-243q0 -74 -1 -128.5t-5 -96.5t-10 -75.5t-16 -70.5q-39 -139 -147.5 -213t-278.5 -74q-254 0 -353 109q-35 39 -54 87t-19 95q0 20 9 27.5t38 7.5h67q25 0 33 -7t12 -32 q35 -156 256 -156q150 0 224 76q41 45 59 111.5t18 165.5v163q-111 -129 -340 -129q-193 0 -299 103.5t-106 290.5zM242 934q0 -162 70.5 -234.5t224.5 -72.5q141 0 219 79.5t78 227.5v29q0 150 -76 228.5t-221 78.5q-295 0 -295 -301v-35z" />
<glyph unicode=":" horiz-adv-x="499" d="M123 88v41q0 53 34 85t93 32t93 -32t34 -85v-41q0 -53 -34 -85t-93 -32t-93 32t-34 85zM123 934v41q0 53 34 85t93 32t93 -32t34 -85v-41q0 -53 -34 -85t-93 -32t-93 32t-34 85z" />
<glyph unicode=";" horiz-adv-x="499" d="M86 -293q0 4 1 8t7 19l115 264q-39 6 -61.5 37t-22.5 78v16q0 53 34 85t93 32t93 -32t34 -87v-39q0 -41 -15.5 -82t-52.5 -110l-88 -164q-14 -27 -25.5 -34t-35.5 -7h-51q-25 0 -25 16zM125 934v41q0 53 34 85t93 32t93 -32t34 -85v-41q0 -53 -34 -85t-93 -32t-93 32 t-34 85z" />
<glyph unicode="&#x3c;" d="M156 651v74q0 20 4 27.5t24 17.5l787 350q12 6 20 6q20 0 21 -28v-76q0 -25 -6.5 -32t-34.5 -19l-654 -283l654 -282q29 -12 35 -19.5t6 -32.5v-75q0 -29 -21 -29q-8 0 -20 6l-787 350q-20 10 -24 17.5t-4 27.5z" />
<glyph unicode="=" d="M156 428v51q0 25 6 33t28 8h787q23 0 29 -8.5t6 -32.5v-51q0 -25 -6.5 -33t-28.5 -8h-787q-23 0 -28.5 8t-5.5 33zM156 897v51q0 25 6 33t28 8h787q23 0 29 -8.5t6 -32.5v-51q0 -25 -6.5 -33t-28.5 -8h-787q-23 0 -28.5 8t-5.5 33z" />
<glyph unicode="&#x3e;" d="M156 279v75q0 25 6 32t35 20l651 282l-651 283q-29 12 -35 19t-6 32v76q0 29 20 28q10 0 21 -6l786 -350q20 -10 24.5 -17.5t4.5 -27.5v-74q0 -20 -4 -27.5t-25 -17.5l-786 -350q-10 -6 -21 -6q-20 0 -20 29z" />
<glyph unicode="?" horiz-adv-x="1052" d="M76 1171q0 45 23.5 99.5t58.5 89.5q116 123 366 123q88 0 162 -23.5t125 -67.5t80 -105.5t29 -137.5v-33q0 -102 -45.5 -177t-147.5 -140l-57 -37q-29 -18 -47.5 -35.5t-28.5 -40t-14.5 -53.5t-4.5 -76v-84q0 -27 -9 -35t-38 -8h-65q-27 0 -36 8t-9 35v84q0 68 7 116 t25.5 85t51.5 67.5t84 63.5l57 37q55 35 78.5 80t23.5 116v21q0 96 -65.5 151.5t-177.5 55.5q-219 0 -264 -185q-8 -33 -43 -32h-74q-27 0 -36 8t-9 30zM373 82v39q0 51 32.5 80.5t86.5 29.5q59 0 91.5 -29.5t32.5 -80.5v-39q0 -51 -33.5 -81t-90.5 -30q-53 0 -86 31t-33 80 z" />
<glyph unicode="@" horiz-adv-x="1386" d="M119 287v188q0 303 147.5 468t417.5 165h123q229 0 345 -110.5t116 -327.5v-279q0 -186 -86 -273t-267 -87h-57q-199 0 -293 75.5t-94 235.5q0 174 100.5 255t317.5 81q49 0 110.5 -4t110.5 -10v32q0 272 -313 273h-103q-416 0 -415 -492v-190q0 -254 119.5 -374 t371.5 -120h408q23 0 28.5 -8t5.5 -33v-61q0 -25 -6 -33t-28 -8h-433q-309 0 -467.5 161.5t-158.5 475.5zM635 344q0 -96 53 -139t170 -43h39q113 0 163 58.5t50 189.5v112q-66 10 -121 14.5t-88 4.5q-76 0 -127 -9.5t-81.5 -33t-44 -61.5t-13.5 -93z" />
<glyph unicode="A" horiz-adv-x="1232" d="M29 25q0 6 4 18l469 1370q8 25 18 35t35 10h131q25 0 35 -11t18 -34l461 -1370q4 -12 4 -18q0 -25 -33 -25h-92q-27 0 -35 6t-16 29l-121 364h-590l-118 -364q-8 -23 -16.5 -29t-35.5 -6h-86q-33 0 -32 25zM365 543h495l-246 753z" />
<glyph unicode="B" horiz-adv-x="1214" d="M156 41v1376q0 25 9 33t34 8h469q201 0 310 -96t109 -272v-27q0 -96 -49 -180t-139 -119q90 -27 149.5 -113t59.5 -202v-33q0 -115 -30.5 -194t-91 -128t-149.5 -71.5t-204 -22.5h-434q-25 0 -34 8t-9 33zM317 141h322q137 0 215 59.5t78 200.5v43q0 117 -65.5 185.5 t-188.5 68.5h-361v-557zM317 840h347q129 0 190 51t61 170v29q0 117 -65.5 172t-204.5 55h-328v-477z" />
<glyph unicode="C" horiz-adv-x="1206" d="M119 551v336q0 117 10 190.5t33 130.5q55 139 175 211t300 72q260 0 375 -131q100 -109 100 -279q0 -23 -9 -31t-36 -8h-76q-27 0 -36 6.5t-11 28.5q-20 268 -317 269q-180 0 -260 -102.5t-80 -332.5v-364q0 -227 79.5 -329.5t258.5 -102.5q298 0 323 272q2 23 11.5 29 t35.5 6h72q27 0 36 -8t9 -31q0 -84 -27.5 -157.5t-76.5 -123.5q-137 -135 -387 -135q-166 0 -284 64.5t-175 199.5q-23 59 -33 132t-10 188z" />
<glyph unicode="D" horiz-adv-x="1243" d="M156 41v1376q0 25 9 33t34 8h415q168 0 292 -71.5t171 -196.5q47 -129 47 -311v-310q0 -100 -11 -172.5t-36 -132.5q-51 -127 -168.5 -195.5t-283.5 -68.5h-426q-25 0 -34 8t-9 33zM319 139h291q180 0 263 102.5t83 323.5v328q0 221 -82.5 323.5t-263.5 102.5h-291v-1180 z" />
<glyph unicode="E" horiz-adv-x="1126" d="M156 41v1376q0 25 9 33t34 8h757q25 0 34 -8t9 -33v-57q0 -25 -9 -33t-34 -8h-637v-500h584q25 0 34 -8t9 -33v-57q0 -25 -9 -33t-34 -8h-584v-541h646q25 0 34 -8t9 -33v-57q0 -25 -9.5 -33t-33.5 -8h-766q-25 0 -34 8t-9 33z" />
<glyph unicode="F" horiz-adv-x="1085" d="M156 41v1376q0 25 9 33t34 8h753q25 0 34 -8t9 -33v-57q0 -25 -9 -33t-34 -8h-633v-481h580q25 0 34 -8.5t9 -32.5v-58q0 -25 -9 -33t-34 -8h-580v-657q0 -25 -9 -33t-34 -8h-77q-25 0 -34 8t-9 33z" />
<glyph unicode="G" horiz-adv-x="1249" d="M119 541v336q0 121 10 194.5t33 130.5q57 141 179 215t306 74q123 0 213 -29.5t158 -95.5q23 -23 43 -56.5t35.5 -72.5t24.5 -79t9 -77q0 -23 -9 -31t-36 -8h-75q-25 0 -33 7.5t-10 27.5q-14 133 -98.5 202t-235.5 69q-182 0 -264 -103.5t-82 -333.5v-364 q0 -229 82 -332.5t264 -103.5q332 0 332 364v96h-209q-25 0 -34 8.5t-9 32.5v64q0 25 9 33t34 8h331q43 0 43 -41v-217q0 -233 -132 -362.5t-369 -129.5q-174 0 -292 66.5t-175 202.5q-23 59 -33 128.5t-10 176.5z" />
<glyph unicode="H" horiz-adv-x="1314" d="M156 41v1376q0 25 9 33t34 8h77q25 0 34 -8t9 -33v-573h676v573q0 25 9.5 33t33.5 8h78q25 0 34 -8t9 -33v-1376q0 -25 -9 -33t-34 -8h-78q-25 0 -34 8t-9 33v659h-676v-659q0 -25 -9 -33t-34 -8h-77q-25 0 -34 8t-9 33z" />
<glyph unicode="I" horiz-adv-x="475" d="M156 41v1376q0 25 9 33t34 8h77q25 0 34 -8t9 -33v-1376q0 -25 -9 -33t-34 -8h-77q-25 0 -34 8t-9 33z" />
<glyph unicode="J" horiz-adv-x="1083" d="M59 352q0 23 9.5 31t35.5 8h72q27 0 36 -6t11 -29q10 -117 80 -178t189 -61q80 0 134 21.5t88 70.5t49 128t15 193v887q0 25 9.5 33t33.5 8h78q25 0 34 -8t9 -33v-934q0 -264 -107.5 -390t-334.5 -126q-205 0 -323 102.5t-118 282.5z" />
<glyph unicode="K" horiz-adv-x="1193" d="M156 41v1376q0 25 9 33t34 8h75q25 0 34 -8t9 -33v-719l584 719q23 29 31 35t29 6h112q29 0 29 -22q0 -8 -8 -19l-445 -540l494 -836q4 -8 5 -11t1 -7q0 -23 -37 -23h-111q-23 0 -33 7t-26 34l-405 698l-220 -262v-436q0 -25 -9 -33t-34 -8h-75q-25 0 -34 8t-9 33z" />
<glyph unicode="L" horiz-adv-x="1019" d="M156 41v1376q0 25 9 33t34 8h77q25 0 34 -8t9 -33v-1278h599q25 0 34 -8t9 -33v-57q0 -25 -9.5 -33t-33.5 -8h-719q-25 0 -34 8t-9 33z" />
<glyph unicode="M" horiz-adv-x="1484" d="M156 41v1376q0 25 9 33t34 8h112q25 0 36 -7t22 -32l372 -811l383 811q10 25 21.5 32t36.5 7h104q25 0 34 -8t9 -33v-1376q0 -25 -9 -33t-34 -8h-74q-25 0 -34 8t-9 33v1133l-333 -701q-10 -25 -21.5 -32t-36.5 -7h-80q-25 0 -36 7.5t-21 31.5l-326 701v-1133 q0 -25 -9 -33t-34 -8h-73q-25 0 -34 8t-9 33z" />
<glyph unicode="N" horiz-adv-x="1273" d="M156 41v1376q0 25 9 33t34 8h100q23 0 34 -8t23 -31l602 -1143v1141q0 25 9.5 33t33.5 8h74q25 0 34 -8t9 -33v-1376q0 -25 -9 -33t-34 -8h-100q-23 0 -34 8t-23 31l-603 1143v-1141q0 -25 -9 -33t-34 -8h-73q-25 0 -34 8t-9 33z" />
<glyph unicode="O" horiz-adv-x="1261" d="M119 561v316q0 61 2 108t7 85t14.5 69.5t21.5 62.5q115 289 467 289t467 -279q12 -31 21 -61.5t14.5 -67t7.5 -82t2 -104.5v-315q0 -61 -2 -108.5t-7.5 -85.5t-14.5 -69.5t-21 -62.5q-115 -289 -467 -289q-354 0 -467 275q-12 31 -21.5 62.5t-14.5 68.5t-7 83t-2 105z M287 547q0 -229 82 -332.5t262 -103.5t262 103t82 333v364q0 229 -82 333t-262 104t-262 -103.5t-82 -333.5v-364z" />
<glyph unicode="P" horiz-adv-x="1132" d="M156 41v1376q0 25 9 33t34 8h399q244 0 355.5 -101.5t111.5 -324.5v-41q0 -416 -467 -416h-283v-534q0 -25 -9 -33t-34 -8h-73q-25 0 -34 8t-9 33zM315 715h289q158 0 224.5 62.5t66.5 213.5v33q0 162 -65.5 228.5t-225.5 66.5h-289v-604z" />
<glyph unicode="Q" horiz-adv-x="1302" d="M119 561v316q0 61 2 108t7 85t14.5 69.5t21.5 62.5q115 289 467 289t467 -279q12 -31 21 -61.5t14.5 -67t7.5 -82t2 -104.5v-336q0 -84 -10.5 -148.5t-34 -115.5t-60.5 -90t-90 -72h250q25 0 34 -8t9 -33v-53q0 -25 -9 -33t-34 -8h-567q-512 0 -512 561zM287 561 q0 -223 82 -323.5t262 -100.5t262 100.5t82 323.5v350q0 229 -82 333t-262 104t-262 -103.5t-82 -333.5v-350z" />
<glyph unicode="R" horiz-adv-x="1208" d="M156 41v1376q0 25 9 33t34 8h409q229 0 348 -91t119 -314v-39q0 -160 -73.5 -254t-210.5 -127l333 -592q6 -12 6 -18q0 -23 -36 -23h-101q-23 0 -34 7t-25 34l-316 575h-303v-575q0 -25 -9 -33t-34 -8h-73q-25 0 -34 8t-9 33zM315 756h299q96 0 153.5 20.5t88.5 55t40 82 t9 100.5v30q0 57 -9 107.5t-40 87.5t-88 58.5t-154 21.5h-299v-563z" />
<glyph unicode="S" horiz-adv-x="1126" d="M90 313q0 23 9.5 31t35.5 8h72q25 0 34 -6t13 -29q23 -100 103.5 -152t213.5 -52q141 0 219 66.5t78 189.5q0 188 -202 260l-265 88q-289 98 -288 364v11q0 190 123.5 294.5t351.5 104.5q129 0 215 -33t145 -104q33 -39 53.5 -94.5t20.5 -102.5q0 -23 -9 -31t-36 -8h-72 q-27 0 -35 6t-12 29q-31 199 -287 199q-139 0 -217 -65.5t-78 -182.5q0 -49 11.5 -87t37 -67.5t68.5 -52.5t107 -43l264 -88q135 -47 204.5 -144.5t69.5 -236.5v-10q0 -92 -32.5 -168t-92 -129t-145.5 -82t-190 -29q-256 0 -381 119q-45 43 -76 108.5t-31 118.5z" />
<glyph unicode="T" horiz-adv-x="1126" d="M45 1360v57q0 25 9 33t34 8h950q25 0 34 -8t9 -33v-57q0 -25 -9 -33t-34 -8h-393v-1278q0 -25 -9 -33t-34 -8h-78q-25 0 -34 8t-9 33v1278h-393q-25 0 -34 8t-9 33z" />
<glyph unicode="U" horiz-adv-x="1261" d="M141 496v921q0 25 9.5 33t33.5 8h78q25 0 34 -8t9 -33v-923q0 -375 311 -375h27q313 0 313 375v923q0 25 9.5 33t33.5 8h78q25 0 34 -8t9 -33v-921q0 -262 -121.5 -395.5t-359.5 -133.5h-18q-479 0 -480 529z" />
<glyph unicode="V" horiz-adv-x="1157" d="M37 1434q0 25 33 24h88q25 0 34 -6t17 -31l375 -1198l368 1198q8 25 17.5 31t34.5 6h83q33 0 33 -24q0 -6 -4 -19l-434 -1370q-8 -25 -18.5 -35t-34.5 -10h-101q-25 0 -35 10t-18 35l-434 1370q-4 12 -4 19z" />
<glyph unicode="W" horiz-adv-x="1589" d="M37 1434q0 25 33 24h82q27 0 37 -7t14 -30l250 -1214l249 1155q6 27 18.5 36t35.5 9h86q45 0 53 -45l233 -1159l261 1218q4 23 14 30t37 7h80q33 0 32 -24q0 -2 -4 -23l-307 -1366q-6 -27 -18.5 -36t-34.5 -9h-121q-45 0 -53 45l-223 1079l-232 -1079q-6 -27 -18.5 -36 t-34.5 -9h-121q-45 0 -53 45l-291 1366q-4 20 -4 23z" />
<glyph unicode="X" horiz-adv-x="1105" d="M39 25q0 4 1 7t5 11l418 721l-395 651q-6 14 -7 19q0 25 31 24h101q23 0 33 -6t24 -31l305 -512l309 512q14 25 24.5 31t33.5 6h92q31 0 30 -24q0 -4 -1 -7.5t-5 -11.5l-395 -647l418 -725q4 -8 5 -11t1 -7q0 -25 -31 -25h-100q-23 0 -33 6t-24 31l-328 584l-332 -584 q-14 -25 -24.5 -31t-32.5 -6h-92q-31 0 -31 25z" />
<glyph unicode="Y" horiz-adv-x="1103" d="M29 1434q0 25 37 24h90q25 0 35 -6t20 -29l348 -704l342 704q10 23 20.5 29t34.5 6h82q37 0 37 -24q0 -8 -6 -21l-434 -860v-512q0 -25 -9.5 -33t-33.5 -8h-78q-25 0 -34 8t-9 33v512l-436 860q-6 12 -6 21z" />
<glyph unicode="Z" horiz-adv-x="1122" d="M82 41v61q0 20 5 35t13 27l740 1155h-684q-25 0 -34 8t-9 33v57q0 25 9 33t34 8h825q25 0 34 -8t9 -33v-61q0 -20 -5 -34.5t-13 -27.5l-740 -1155h731q25 0 34 -8t9 -33v-57q0 -25 -9 -33t-34 -8h-872q-25 0 -34 8t-9 33z" />
<glyph unicode="[" horiz-adv-x="634" d="M156 -309v1726q0 25 9 33t34 8h321q23 0 29 -8t6 -33v-45q0 -25 -6 -33t-29 -8h-209v-1554h209q23 0 29 -8.5t6 -32.5v-45q0 -25 -6 -33t-29 -8h-321q-25 0 -34 8t-9 33z" />
<glyph unicode="\" horiz-adv-x="647" d="M14 1438q0 20 29 20h63q25 0 33 -6t19 -35l471 -1376q4 -12 4 -21q0 -20 -29 -20h-63q-25 0 -33 6t-19 35l-471 1376q-4 12 -4 21z" />
<glyph unicode="]" horiz-adv-x="634" d="M80 -264q0 25 6 33t29 8h209v1554h-209q-23 0 -29 8.5t-6 32.5v45q0 25 6 33t29 8h321q25 0 34 -8t9 -33v-1726q0 -25 -9 -33t-34 -8h-321q-23 0 -29 8t-6 33v45z" />
<glyph unicode="^" d="M125 434q0 4 8 21l375 716q10 20 35 21h82q25 0 34 -21l375 -716q8 -14 8 -21q0 -18 -26 -18h-90q-16 0 -24.5 8t-18.5 29l-301 583l-297 -583q-10 -20 -18.5 -28.5t-24.5 -8.5h-90q-27 0 -27 18z" />
<glyph unicode="_" horiz-adv-x="1024" d="M0 -190q0 25 6 32.5t29 7.5h954q23 0 29 -8t6 -32v-50q0 -25 -6 -33t-29 -8h-954q-23 0 -29 8.5t-6 32.5v50z" />
<glyph unicode="`" horiz-adv-x="1024" d="M352 1479q0 16 27 16h90q29 0 39 -7t28 -38l125 -203q8 -14 8 -22q0 -16 -26 -17h-70q-25 0 -35 6.5t-32 38.5l-146 203q-8 14 -8 23z" />
<glyph unicode="a" horiz-adv-x="1036" d="M90 305q0 182 104.5 266t327.5 84q41 0 104.5 -4t127.5 -12v121q0 113 -52.5 163t-171.5 50q-96 0 -146 -27.5t-79 -95.5q-10 -23 -16 -29t-31 -6h-74q-27 0 -36 8t-9 31q0 29 16.5 62.5t41.5 62.5q53 61 133 92t200 31q205 0 295 -79t90 -259v-420q0 -186 -92 -275 t-295 -89h-30q-209 0 -308.5 76.5t-99.5 248.5zM256 307q0 -100 56.5 -145t197.5 -45h18q121 0 173.5 58t52.5 187v140q-61 8 -121.5 13t-97.5 5q-158 0 -218.5 -49t-60.5 -164z" />
<glyph unicode="b" horiz-adv-x="1103" d="M121 397v1020q0 25 9 33t34 8h76q25 0 34 -8t9 -33v-442q102 127 303 127q203 0 310.5 -115t107.5 -332v-227q0 -217 -115 -337t-326 -120t-326.5 111t-115.5 315zM283 451q0 -340 280 -340q279 0 279 340v172q0 340 -281 340q-137 0 -207.5 -87.5t-70.5 -252.5v-172z " />
<glyph unicode="c" horiz-adv-x="1015" d="M100 418v203q0 240 106.5 360.5t313.5 120.5q223 0 324 -113q78 -88 78 -198q0 -23 -9.5 -31t-35.5 -8h-66q-27 0 -35 6t-12 28q-10 86 -70.5 132.5t-165.5 46.5q-139 0 -202.5 -81t-63.5 -261v-172q0 -176 63.5 -258t198.5 -82q209 0 240 176q4 23 12 29t35 6h68 q27 0 36 -8.5t9 -30.5q0 -37 -15.5 -83t-44.5 -87q-94 -141 -344 -142q-207 0 -313.5 113t-106.5 334z" />
<glyph unicode="d" horiz-adv-x="1103" d="M100 408v227q0 219 110.5 343t309.5 124t301 -127v442q0 25 9.5 33t33.5 8h76q25 0 34 -8t9 -33v-979q0 -223 -115.5 -345t-326.5 -122t-326 114t-115 323zM262 451q0 -340 279 -340q281 0 280 340v172q0 340 -278 340q-281 0 -281 -340v-172z" />
<glyph unicode="e" horiz-adv-x="1050" d="M100 436v154q0 248 111 380t321 132q422 0 422 -469v-105q0 -25 -9 -33t-34 -8h-649v-38q0 -338 275 -338q174 0 231 133q10 25 17.5 30t29.5 5h74q29 0 37 -5.5t8 -27.5q0 -29 -22.5 -74t-51.5 -78q-51 -57 -138 -90t-192 -33q-207 0 -318.5 121t-111.5 344zM262 621 h529q0 182 -63 268t-196 86q-268 0 -270 -354z" />
<glyph unicode="f" horiz-adv-x="659" d="M55 979v53q0 25 6.5 33t28.5 8h131v92q0 141 82 217t234 76h73q23 0 29 -8t6 -33v-55q0 -25 -6 -33t-29 -8h-59q-92 0 -130 -37t-38 -127v-84h186q23 0 29 -8t6 -33v-53q0 -25 -6 -33t-29 -8h-186v-897q0 -25 -9 -33t-34 -8h-76q-25 0 -34 8t-9 33v897h-131q-23 0 -29 8 t-6 33z" />
<glyph unicode="g" horiz-adv-x="1099" d="M100 438v197q0 223 114 345t325 122t325.5 -117t114.5 -330v-630q0 -117 -30.5 -195t-89 -124t-140.5 -65.5t-187 -19.5q-86 0 -156.5 16.5t-120.5 47t-79 72.5t-29 93q0 23 8.5 28t37.5 5h77q23 0 30 -5t17 -30q23 -47 74 -70.5t144 -23.5q145 0 210 58q72 66 72 204v97 q-51 -59 -127 -90t-172 -31q-203 0 -310.5 114.5t-107.5 331.5zM262 471q0 -340 279 -340q276 0 276 340v152q0 340 -278 340q-276 0 -277 -340v-152z" />
<glyph unicode="h" horiz-adv-x="1097" d="M141 41v1376q0 25 9.5 33t33.5 8h76q25 0 34 -8t9 -33v-452q53 66 133 101.5t178 35.5q172 0 262.5 -92t90.5 -269v-700q0 -25 -9.5 -33t-33.5 -8h-76q-25 0 -34 8t-9 33v666q0 131 -55.5 191t-178.5 60t-195.5 -78.5t-72.5 -209.5v-629q0 -25 -9 -33t-34 -8h-76 q-25 0 -34 8t-9 33z" />
<glyph unicode="i" horiz-adv-x="444" d="M121 1356v33q0 41 27.5 65.5t74.5 24.5q49 0 78 -24.5t29 -65.5v-33q0 -43 -29 -67.5t-78 -24.5q-47 0 -74.5 24.5t-27.5 67.5zM141 41v991q0 25 9.5 33t33.5 8h76q25 0 34 -8t9 -33v-991q0 -25 -9 -33t-34 -8h-76q-25 0 -34 8t-9 33z" />
<glyph unicode="j" horiz-adv-x="444" d="M-109 -248q0 25 6.5 33t28.5 8h60q90 0 122.5 30t32.5 107v1102q0 25 9.5 33t33.5 8h76q25 0 34 -8t9 -33v-1112q0 -270 -285 -270h-92q-23 0 -29 8t-6 33v61zM121 1356v33q0 41 27.5 65.5t74.5 24.5q49 0 78 -24.5t29 -65.5v-33q0 -43 -29 -67.5t-78 -24.5 q-47 0 -74.5 24.5t-27.5 67.5z" />
<glyph unicode="k" horiz-adv-x="1021" d="M141 41v1376q0 25 9.5 33t33.5 8h76q25 0 34 -8t9 -33v-860l438 475q25 27 39.5 34t38.5 7h82q37 0 37 -26q0 -6 -2 -11.5t-12 -15.5l-314 -332l396 -635q8 -14 8 -26q0 -27 -37 -27h-107q-23 0 -32 7t-25 34l-315 526l-195 -205v-321q0 -25 -9 -33t-34 -8h-76 q-25 0 -34 8t-9 33z" />
<glyph unicode="l" horiz-adv-x="444" d="M141 41v1376q0 25 9.5 33t33.5 8h76q25 0 34 -8t9 -33v-1376q0 -25 -9 -33t-34 -8h-76q-25 0 -34 8t-9 33z" />
<glyph unicode="m" horiz-adv-x="1716" d="M141 41v991q0 25 9.5 33t33.5 8h72q25 0 34 -8t9 -33v-71q49 68 128 104.5t177 36.5q223 0 303 -168q66 90 144.5 129t193.5 39q166 0 253 -92t87 -269v-700q0 -25 -9 -33t-34 -8h-76q-25 0 -34 8t-9 33v666q0 131 -52 191t-169 60t-187.5 -77.5t-70.5 -210.5v-629 q0 -25 -9 -33t-34 -8h-76q-25 0 -34 8t-9 33v666q0 131 -52 191t-169 60t-187.5 -77.5t-70.5 -210.5v-629q0 -25 -9 -33t-34 -8h-76q-25 0 -34 8t-9 33z" />
<glyph unicode="n" horiz-adv-x="1097" d="M141 41v991q0 25 9.5 33t33.5 8h72q25 0 34 -8t9 -33v-71q51 68 132 104.5t183 36.5q172 0 262.5 -92t90.5 -269v-700q0 -25 -9.5 -33t-33.5 -8h-76q-25 0 -34 8t-9 33v666q0 131 -55.5 191t-178.5 60t-195.5 -78.5t-72.5 -209.5v-629q0 -25 -9 -33t-34 -8h-76 q-25 0 -34 8t-9 33z" />
<glyph unicode="o" horiz-adv-x="1085" d="M100 418v217q0 223 116 345t327 122t326.5 -117t115.5 -330v-217q0 -223 -115.5 -345t-326.5 -122t-327 117t-116 330zM262 451q0 -340 281 -340t280 340v172q0 340 -280 340q-281 0 -281 -340v-172z" />
<glyph unicode="p" horiz-adv-x="1103" d="M121 -309v944q0 223 115.5 345t326.5 122t326 -114t115 -322v-217q0 -478 -420 -478q-98 0 -176 33t-125 94v-407q0 -25 -9.5 -33t-33.5 -8h-76q-25 0 -34 8t-9 33zM283 451q0 -166 70.5 -253t207.5 -87q281 0 281 340v172q0 340 -279 340q-281 0 -280 -340v-172z" />
<glyph unicode="q" horiz-adv-x="1103" d="M100 418v217q0 223 115 345t326 122t326.5 -117t115.5 -330v-964q0 -25 -9 -33t-34 -8h-76q-25 0 -34 8t-9 33v407q-102 -127 -303 -127q-203 0 -310.5 115t-107.5 332zM262 451q0 -340 281 -340q279 0 278 340v172q0 340 -280 340q-279 0 -279 -340v-172z" />
<glyph unicode="r" horiz-adv-x="696" d="M141 41v991q0 25 9.5 33t33.5 8h72q25 0 34 -8t9 -33v-155q39 88 118 142t177 54h27q23 0 28.5 -8t5.5 -33v-74q0 -25 -6 -32.5t-28 -7.5h-54q-61 0 -109 -27t-83 -75t-53.5 -112.5t-18.5 -140.5v-522q0 -25 -9 -33t-34 -8h-76q-25 0 -34 8t-9 33z" />
<glyph unicode="s" horiz-adv-x="972" d="M84 252q0 23 9 31t36 8h59q25 0 34 -6t14 -29q18 -82 77.5 -119t175.5 -37q233 0 234 166q0 78 -42 122t-144 71l-183 47q-127 35 -186 101.5t-59 176.5v11q0 141 102 224t281 83q215 0 311 -103q74 -74 74 -174q0 -23 -9.5 -31t-36.5 -8h-59q-27 0 -35 6.5t-12 28.5 q-25 154 -248 154q-102 0 -158.5 -45t-56.5 -127q0 -35 10.5 -59.5t35 -45t64.5 -37t99 -30.5l168 -43q246 -61 246 -299v-10q0 -308 -391 -308q-223 0 -330 101q-80 76 -80 180z" />
<glyph unicode="t" horiz-adv-x="696" d="M43 979v53q0 25 6 33t29 8h133v260q0 25 9 33t34 8h76q25 0 34 -8t9 -33v-260h211q23 0 28.5 -8t5.5 -33v-53q0 -25 -6 -33t-28 -8h-211v-639q0 -84 27.5 -120t91.5 -36h96q23 0 29 -8t6 -33v-61q0 -25 -6.5 -33t-28.5 -8h-111q-139 0 -202.5 65.5t-63.5 206.5v666h-133 q-23 0 -29 8t-6 33z" />
<glyph unicode="u" horiz-adv-x="1077" d="M131 332v700q0 25 9.5 33t33.5 8h76q25 0 34 -8t9 -33v-665q0 -131 53 -191.5t170 -60.5t187.5 78.5t70.5 209.5v629q0 25 9.5 33t33.5 8h76q25 0 34 -8t9 -33v-991q0 -25 -9 -33t-34 -8h-72q-25 0 -34 8t-9 33v70q-53 -68 -130 -104t-175 -36q-166 0 -254 92.5 t-88 268.5z" />
<glyph unicode="v" horiz-adv-x="940" d="M23 1049q0 25 32 24h88q20 0 29.5 -9t17.5 -34l285 -868l277 868q8 27 17 35t30 8h86q33 0 33 -24q0 -4 -7 -25l-329 -979q-10 -27 -20.5 -36t-33.5 -9h-118q-23 0 -33 9t-21 36l-327 979q-6 20 -6 25z" />
<glyph unicode="w" horiz-adv-x="1476" d="M23 1049q0 25 32 24h86q20 0 29.5 -8t17.5 -35l236 -887l213 844q6 27 18.5 36t34.5 9h98q23 0 35.5 -9t18.5 -36l221 -844l227 887q6 25 15.5 34t31.5 9h84q33 0 33 -24q0 -6 -6 -27l-270 -977q-8 -27 -19.5 -36t-34.5 -9h-135q-23 0 -35 9t-18 36l-199 784l-198 -784 q-6 -27 -18.5 -36t-35.5 -9h-135q-23 0 -34 9t-19 36l-268 977q-6 20 -6 27z" />
<glyph unicode="x" horiz-adv-x="917" d="M23 25q0 8 6 18l336 516l-322 471q-6 8 -6 19q0 25 31 24h98q23 0 32 -7t25 -30l236 -356l241 356q16 23 25.5 30t32.5 7h84q31 0 30 -24q0 -10 -6 -19l-317 -461l340 -526q6 -10 6 -18q0 -25 -31 -25h-102q-23 0 -33 7t-24 30l-252 403l-254 -403q-16 -23 -25.5 -30 t-32.5 -7h-88q-31 0 -30 25z" />
<glyph unicode="y" horiz-adv-x="946" d="M23 1049q0 25 32 24h90q20 0 28.5 -8t19.5 -35l292 -790l273 790q10 27 18 35t29 8h86q33 0 33 -24q0 -6 -6 -25l-386 -1077q-33 -94 -68.5 -152.5t-76.5 -90.5t-89 -43t-108 -11h-47q-23 0 -28.5 8t-5.5 33v61q0 25 6 33t28 8h25q43 0 74.5 6t56.5 24.5t44 51.5t38 84 l25 72l-377 993q-6 18 -6 25z" />
<glyph unicode="z" horiz-adv-x="960" d="M76 41v39q0 37 18 61l580 795h-533q-23 0 -29 8t-6 33v55q0 25 6.5 33t28.5 8h695q23 0 28.5 -8t5.5 -33v-39q0 -37 -18 -61l-580 -795h584q23 0 29 -8t6 -33v-55q0 -25 -6 -33t-29 -8h-745q-23 0 -29 8t-6 33z" />
<glyph unicode="{" horiz-adv-x="706" d="M70 516v72q0 25 6 33t28 8q72 0 114 44t42 120v370q0 152 71.5 223.5t223.5 71.5h47q23 0 29 -8t6 -33v-51q0 -25 -6 -33t-29 -8h-35q-86 0 -116.5 -40t-30.5 -146v-342q0 -92 -32 -149.5t-103 -92.5q72 -37 103.5 -93t31.5 -149v-344q0 -53 7 -89t23.5 -57.5t45 -30.5 t71.5 -9h35q23 0 29 -8t6 -33v-51q0 -25 -6 -33t-29 -8h-47q-152 0 -223.5 71.5t-71.5 223.5v366q0 76 -42 120t-114 44q-23 0 -28.5 8.5t-5.5 32.5z" />
<glyph unicode="|" horiz-adv-x="509" d="M186 -315v1738q0 23 8.5 29t32.5 6h56q25 0 33 -6t8 -29v-1738q0 -23 -8.5 -29t-32.5 -6h-56q-25 0 -33 6t-8 29z" />
<glyph unicode="}" horiz-adv-x="706" d="M70 -258q0 25 6 33t28 8h35q43 0 72 9t45 30.5t23.5 57.5t7.5 89v344q0 92 31.5 148.5t103.5 93.5q-72 35 -103.5 92.5t-31.5 149.5v342q0 106 -31 146t-117 40h-35q-23 0 -28.5 8t-5.5 33v51q0 25 6 33t28 8h48q152 0 223 -71.5t71 -223.5v-370q0 -76 42 -120t114 -44 q23 0 29 -8.5t6 -32.5v-72q0 -25 -6 -33t-29 -8q-72 0 -114 -44t-42 -120v-366q0 -152 -71.5 -223.5t-222.5 -71.5h-48q-23 0 -28.5 8t-5.5 33v51z" />
<glyph unicode="~" d="M135 481v127q0 135 50.5 198.5t158.5 63.5q49 0 98.5 -23.5t110.5 -76.5l135 -119q53 -47 81 -63.5t54 -16.5q76 0 76 129v127q0 23 8 29t33 6h51q25 0 33 -6t8 -29v-127q0 -135 -50 -198.5t-159 -63.5q-49 0 -98 23.5t-111 77.5l-135 118q-53 47 -80.5 63.5t-54.5 16.5 q-76 0 -76 -129v-127q0 -23 -8 -29t-33 -6h-51q-25 0 -33 6.5t-8 28.5z" />
<glyph unicode="&#xa1;" horiz-adv-x="559" d="M158 987v39q0 51 34 81t91 30q53 0 85.5 -31t32.5 -80v-39q0 -51 -32.5 -80.5t-85.5 -29.5q-59 0 -92 29.5t-33 80.5zM190 -309q0 14 1.5 42.5t1.5 43.5l20 860q0 25 9 33t34 8h47q25 0 34 -8t9 -33l21 -860q0 -14 1 -43t1 -43q0 -25 -8.5 -33t-36.5 -8h-88 q-29 0 -37.5 8t-8.5 33z" />
<glyph unicode="&#xa2;" d="M172 418v217q0 217 93 333.5t276 131.5v172q0 23 8 29t33 6h28q25 0 33 -6.5t8 -28.5v-172q174 -12 264 -111q78 -88 78 -198q0 -23 -9 -31t-36 -8h-65q-27 0 -35 6t-12 28q-10 74 -57.5 119t-127.5 56v-846q156 18 185 172q4 23 12 29t35 6h67q27 0 36 -8.5t9 -30.5 q0 -37 -15 -83t-44 -87q-82 -125 -285 -140v-176q0 -23 -8 -29t-33 -6h-28q-25 0 -33 6.5t-8 28.5v176q-182 14 -275.5 126t-93.5 319zM334 451q0 -160 50 -240t157 -96v846q-109 -16 -158 -97.5t-49 -240.5v-172z" />
<glyph unicode="&#xa3;" d="M102 680v51q0 25 6.5 33t28.5 8h84v211q0 207 107.5 314.5t314.5 107.5q123 0 205 -34t139 -105q31 -39 49.5 -88.5t18.5 -92.5q0 -23 -9.5 -30.5t-35.5 -7.5h-66q-27 0 -35 5.5t-12 28.5q-12 88 -79.5 138.5t-174.5 50.5q-135 0 -197.5 -71t-62.5 -222v-205h381 q23 0 29 -8t6 -33v-51q0 -25 -6.5 -33t-28.5 -8h-381v-500h618q25 0 34 -8t9 -33v-57q0 -25 -9 -33t-34 -8h-737q-25 0 -34 8t-9 33v598h-84q-23 0 -29 8t-6 33z" />
<glyph unicode="&#xa4;" d="M88 250q0 12 14 26l109 117q-96 125 -96 295q0 84 25.5 160t72.5 135l-111 121q-14 14 -14 26q0 10 18 29l48 49q16 16 26 17q10 0 27 -17l117 -127q117 76 260 76q145 0 260 -76l117 127q16 16 26 17q10 0 27 -17l47 -49q18 -18 18 -29q0 -12 -14 -26l-111 -121 q98 -129 99 -295q0 -166 -99 -293l111 -119q14 -14 14 -26q0 -10 -18 -29l-47 -49q-16 -16 -27 -16q-10 0 -26 16l-115 123q-115 -76 -262 -76q-150 0 -262 76l-115 -123q-16 -16 -27 -16q-10 0 -26 16l-48 49q-18 18 -18 29zM260 686q0 -72 24.5 -133t67.5 -106.5 t101.5 -70t128.5 -24.5t130 24.5t103 70t67.5 106.5t24.5 133q0 74 -24.5 136.5t-67.5 106.5t-103.5 69.5t-129.5 25.5q-68 0 -127.5 -25.5t-102.5 -70.5t-67.5 -107.5t-24.5 -134.5z" />
<glyph unicode="&#xa5;" d="M61 1352q0 25 37 24h90q25 0 35 -6t21 -29l348 -639l342 639q10 23 20.5 29t34.5 6h82q37 0 37 -24q0 -8 -6 -21l-369 -659h217q23 0 29 -8.5t6 -32.5v-41q0 -25 -6 -33t-29 -8h-282v-123h282q23 0 29 -8t6 -33v-41q0 -25 -6 -33t-29 -8h-282v-262q0 -25 -9.5 -33 t-33.5 -8h-78q-25 0 -34 8t-9 33v262h-283q-23 0 -29 8t-6 33v41q0 25 6.5 33t28.5 8h283v123h-283q-23 0 -29 8t-6 33v41q0 25 6.5 33t28.5 8h215l-368 659q-6 12 -7 21z" />
<glyph unicode="&#xa6;" horiz-adv-x="509" d="M186 219q0 23 8.5 29t32.5 6h56q25 0 33 -6t8 -29v-534q0 -23 -8.5 -29t-32.5 -6h-56q-25 0 -33 6t-8 29v534zM186 889v534q0 23 8.5 29t32.5 6h56q25 0 33 -6t8 -29v-534q0 -23 -8.5 -29t-32.5 -6h-56q-25 0 -33 6t-8 29z" />
<glyph unicode="&#xa7;" horiz-adv-x="1001" d="M100 252q0 23 9.5 31t35.5 8h60q25 0 34 -6t13 -29q18 -82 77.5 -119t176.5 -37q233 0 233 166q0 68 -41 106t-145 60l-166 39q-262 59 -262 244v10q0 78 38 139.5t105 96.5q-139 68 -139 208v11q0 143 101.5 225t279.5 82q209 0 309 -103q74 -74 74 -174q0 -23 -9.5 -31 t-35.5 -8h-60q-27 0 -35 6.5t-12 28.5q-25 154 -245 154q-102 0 -157.5 -45t-55.5 -127q0 -31 9 -52.5t31.5 -39t61.5 -30.5t98 -26l166 -39q252 -59 252 -258v-10q0 -70 -40 -128t-107 -91q147 -72 147 -225v-10q0 -307 -391 -308q-223 0 -330 101q-80 76 -80 180zM279 743 q0 -59 31.5 -93t103.5 -50l108 -25q35 -8 58 -8q72 0 115.5 47.5t43.5 118.5q0 59 -32.5 93t-104.5 51l-108 24q-33 8 -60 8q-70 0 -112.5 -46t-42.5 -120z" />
<glyph unicode="&#xa8;" horiz-adv-x="1024" d="M238 1356v33q0 39 25.5 61.5t70.5 22.5q47 0 73.5 -23t26.5 -61v-33q0 -41 -26.5 -63.5t-73.5 -22.5q-45 0 -70.5 22.5t-25.5 63.5zM590 1356v33q0 39 25.5 61.5t70.5 22.5q47 0 73.5 -23t26.5 -61v-33q0 -41 -26.5 -63.5t-73.5 -22.5q-45 0 -70.5 22.5t-25.5 63.5z" />
<glyph unicode="&#xa9;" horiz-adv-x="1728" d="M102 729q0 166 56.5 306.5t158 241.5t241.5 157.5t306 56.5t306.5 -56.5t241.5 -157.5t157.5 -241.5t56.5 -306.5t-56.5 -306t-157.5 -241.5t-241.5 -158t-306.5 -56.5t-306 56.5t-241.5 158t-158 241.5t-56.5 306zM236 729q0 -141 46 -259t129 -203t198.5 -131 t254.5 -46t255 46t199 131t129 203t46 259t-46 259t-129 203t-199 131t-255 46t-254.5 -46t-198.5 -131t-129 -203t-46 -259zM549 653v154q0 66 6 103.5t25 76.5q35 76 105.5 117t172.5 41q78 0 136.5 -19.5t92.5 -56.5q61 -72 62 -160q0 -29 -37 -28h-65q-29 0 -31 24 q-14 123 -162 123q-92 0 -133 -47t-41 -154v-184q0 -109 40 -156t132 -47q147 0 166 131q4 23 31 23h63q37 0 37 -29q0 -94 -68 -162q-72 -78 -231 -77q-94 0 -167 40t-105 111q-16 39 -22.5 78t-6.5 98z" />
<glyph unicode="&#xaa;" horiz-adv-x="739" d="M78 946q0 227 284 228q51 0 154 -13v62q0 133 -137 133q-59 0 -91 -13.5t-52 -44.5q-12 -18 -27 -18h-74q-27 0 -26 20q0 43 45 86q74 72 219 72q137 0 198.5 -53t61.5 -172v-262q0 -115 -65.5 -176.5t-186.5 -61.5h-49q-123 0 -188.5 54.5t-65.5 158.5zM197 950 q0 -61 35.5 -87.5t115.5 -26.5h21q147 0 147 155v70q-41 6 -79 9t-60 3q-102 0 -141 -26.5t-39 -96.5z" />
<glyph unicode="&#xab;" horiz-adv-x="983" d="M80 549v74q0 20 5 29.5t24 27.5l321 299q23 23 33 22q20 0 20 -28v-92q0 -25 -6 -35t-35 -37l-237 -223l237 -224q29 -27 35 -37t6 -34v-92q0 -29 -20 -29q-10 0 -33 23l-321 299q-18 20 -23.5 29t-5.5 28zM500 549v74q0 20 5 29.5t24 27.5l321 299q23 23 33 22 q20 0 20 -28v-92q0 -25 -6 -35t-35 -37l-237 -223l237 -224q29 -27 35 -37t6 -34v-92q0 -29 -20 -29q-10 0 -33 23l-321 299q-18 20 -23.5 29t-5.5 28z" />
<glyph unicode="&#xac;" d="M156 743v52q0 25 6 33t28 8h787q23 0 29 -8.5t6 -32.5v-451q0 -23 -8.5 -29t-32.5 -6h-56q-25 0 -33 6.5t-8 28.5v358h-684q-23 0 -28.5 8.5t-5.5 32.5z" />
<glyph unicode="&#xad;" horiz-adv-x="770" d="M86 508v88q0 25 6 33t29 8h528q23 0 29 -8t6 -33v-88q0 -25 -6 -33t-29 -8h-528q-23 0 -29 8t-6 33z" />
<glyph unicode="&#xae;" horiz-adv-x="1028" d="M102 1079q0 90 31 166t85 130.5t130 85t166 30.5t166 -30.5t130 -85t85 -130.5t31 -166t-31 -165.5t-85 -130t-130 -85t-166 -30.5t-166 30.5t-130 85t-85 130t-31 165.5zM190 1079q0 -74 24 -134t67 -103t102 -67.5t131 -24.5t131.5 24.5t102.5 67.5t66.5 103.5 t23.5 133.5q0 74 -23.5 134.5t-66.5 103.5t-102.5 67.5t-131.5 24.5t-131 -24.5t-102 -67.5t-67 -103.5t-24 -134.5zM369 881v405q0 16 5 20.5t21 4.5h119q152 0 152 -133v-13q0 -92 -74 -118l92 -166q4 -4 4 -13q0 -12 -22 -12h-39q-14 0 -20.5 4t-14.5 21l-84 155h-64 v-155q0 -16 -5 -20.5t-21 -4.5h-23q-16 0 -21 4t-5 21zM444 1108h70q39 0 54.5 13.5t15.5 43.5v11q0 63 -70 63h-70v-131z" />
<glyph unicode="&#xaf;" horiz-adv-x="1024" d="M238 1311v53q0 25 6 33t28 8h480q23 0 28.5 -8t5.5 -33v-53q0 -25 -6 -33t-28 -8h-480q-23 0 -28.5 8t-5.5 33z" />
<glyph unicode="&#xb0;" horiz-adv-x="720" d="M70 1171q0 59 22.5 112.5t62.5 93.5t93 62.5t112 22.5t112.5 -22.5t93.5 -62.5t62.5 -93.5t22.5 -112.5t-22.5 -112t-62.5 -93t-93 -62.5t-113 -22.5q-59 0 -112 22.5t-93 62.5t-62.5 93t-22.5 112zM188 1171q0 -37 13.5 -68.5t37 -55t55.5 -38t66 -14.5q35 0 67 14.5 t55.5 38t36.5 55.5t13 68q0 37 -13 69t-36.5 55.5t-55.5 38t-67 14.5t-66.5 -14.5t-55 -38t-37 -55.5t-13.5 -69z" />
<glyph unicode="&#xb1;" d="M156 43v51q0 25 6 33t28 8h787q23 0 29 -8.5t6 -32.5v-51q0 -25 -6.5 -33t-28.5 -8h-787q-23 0 -28.5 8t-5.5 33zM156 664v51q0 25 6 33t28 8h326v374q0 23 8 29t33 6h55q25 0 33 -6t8 -29v-374h324q23 0 29 -8.5t6 -32.5v-51q0 -25 -6.5 -33t-28.5 -8h-324v-377 q0 -23 -8 -29t-33 -6h-55q-25 0 -33 6t-8 29v377h-326q-23 0 -28.5 8t-5.5 33z" />
<glyph unicode="&#xb2;" horiz-adv-x="751" d="M80 871v51q0 98 53 171t170 138l80 45q39 23 65.5 41.5t41 36.5t20.5 38.5t6 45.5v8q0 111 -141 111q-66 0 -100.5 -23.5t-51.5 -81.5q-4 -16 -10 -20t-25 -4h-82q-27 0 -26 20q0 98 82 157.5t219 59.5t213 -54t76 -153v-28q0 -76 -48.5 -135.5t-158.5 -120.5l-80 -45 q-76 -41 -109.5 -77t-40.5 -81h400q33 0 33 -29v-71q0 -16 -6.5 -22.5t-26.5 -6.5h-520q-33 0 -33 29z" />
<glyph unicode="&#xb3;" horiz-adv-x="751" d="M66 1030q0 27 24 27h86q27 0 33 -20q16 -55 54 -79t108 -24q166 0 166 123v16q0 61 -41 95t-119 34h-35q-33 0 -33 29v68q0 27 33 26h29q158 0 157 117v8q0 113 -155 113q-47 0 -76 -9.5t-51 -31.5q-25 -25 -33 -57q-8 -27 -33 -27h-71q-31 0 -31 27q0 76 57 129 q78 72 252 71q139 0 211 -50t72 -148v-19q0 -133 -129 -184q139 -35 139 -186v-31q0 -104 -80 -162.5t-221 -58.5q-180 0 -256 69q-27 23 -42 61t-15 74z" />
<glyph unicode="&#xb4;" horiz-adv-x="1024" d="M355 1225q0 8 8 22l125 203q18 31 28.5 38t38.5 7h90q27 0 27 -16q0 -8 -8 -23l-146 -203q-23 -33 -33 -39t-34 -6h-70q-27 0 -26 17z" />
<glyph unicode="&#xb5;" horiz-adv-x="1087" d="M141 -309v1341q0 25 9.5 33t33.5 8h76q25 0 34 -8t9 -33v-665q0 -131 53.5 -191.5t169.5 -60.5q117 0 187.5 78.5t70.5 209.5v629q0 25 9.5 33t33.5 8h76q25 0 34 -8t9 -33v-991q0 -25 -9 -33t-34 -8h-72q-25 0 -34 8t-9 33v76q-104 -146 -290 -146q-121 0 -195 70v-350 q0 -25 -9 -33t-34 -8h-76q-25 0 -34 8t-9 33z" />
<glyph unicode="&#xb6;" horiz-adv-x="1370" d="M121 1016v37q0 211 106.5 308t339.5 97h623q25 0 34 -8t9 -33v-57q0 -25 -9.5 -33t-33.5 -8h-98v-1628q0 -25 -9.5 -33t-33.5 -8h-66q-25 0 -34 8t-9 33v1628h-268v-1628q0 -25 -9.5 -33t-33.5 -8h-66q-25 0 -34 8t-9 33v932q-399 20 -399 393z" />
<glyph unicode="&#xb7;" horiz-adv-x="499" d="M123 534v41q0 53 34 85t93 32t93 -32t34 -85v-41q0 -53 -34 -85t-93 -32t-93 32t-34 85z" />
<glyph unicode="&#xb8;" horiz-adv-x="1024" d="M320 -283q0 25 6 33t28 8h125q45 0 60.5 16.5t15.5 61.5q0 18 -4 60.5t-8 76.5l-10 95h147l10 -95q4 -41 9.5 -94t5.5 -82q0 -84 -51.5 -129t-151.5 -45h-148q-23 0 -28.5 8.5t-5.5 32.5v53z" />
<glyph unicode="&#xb9;" horiz-adv-x="751" d="M150 1551v69q0 29 32 29h244q20 0 26.5 -6t6.5 -23v-749q0 -16 -6.5 -22.5t-26.5 -6.5h-74q-37 0 -37 29v653h-133q-33 0 -32 27z" />
<glyph unicode="&#xba;" horiz-adv-x="749" d="M80 1026v129q0 145 76.5 224t218.5 79q141 0 218 -75.5t77 -217.5v-129q0 -145 -77 -224t-218 -79t-218 76t-77 217zM201 1053q0 -111 41 -162t133 -51t133 51t41 162v86q0 111 -41 162t-133 51t-133 -51.5t-41 -161.5v-86z" />
<glyph unicode="&#xbb;" horiz-adv-x="983" d="M80 199v92q0 25 6 35t35 36l237 224l-237 223q-29 27 -35 37t-6 35v92q0 29 20 28q10 0 33 -22l322 -299q20 -18 24 -27.5t4 -29.5v-74q0 -18 -4 -27.5t-24 -29.5l-322 -299q-23 -23 -33 -23q-20 0 -20 29zM500 199v92q0 25 6 35t35 36l237 224l-237 223q-29 27 -35 37 t-6 35v92q0 29 20 28q10 0 33 -22l322 -299q20 -18 24 -27.5t4 -29.5v-74q0 -18 -4 -27.5t-24 -29.5l-322 -299q-23 -23 -33 -23q-20 0 -20 29z" />
<glyph unicode="&#xbc;" horiz-adv-x="1730" d="M150 1278v69q0 29 32 29h244q20 0 26.5 -6t6.5 -23v-749q0 -16 -6.5 -22.5t-26.5 -6.5h-74q-37 0 -37 29v653h-133q-33 0 -32 27zM443 14q0 4 8 21l649 1306q10 20 19.5 27.5t25.5 7.5h102q20 0 21 -14q0 -4 -8 -21l-650 -1306q-10 -20 -19 -27.5t-26 -7.5h-102 q-20 0 -20 14zM1049 170v86q0 23 16 45l354 494q8 12 29 12h100q29 0 29 -27v-524h55q29 0 29 -25v-61q0 -25 -29 -25h-55v-118q0 -16 -5 -21.5t-24 -5.5h-69q-20 0 -25.5 5t-5.5 22v118h-369q-31 0 -30 25zM1172 256h276v393z" />
<glyph unicode="&#xbd;" horiz-adv-x="1730" d="M150 1278v69q0 29 32 29h244q20 0 26.5 -6t6.5 -23v-749q0 -16 -6.5 -22.5t-26.5 -6.5h-74q-37 0 -37 29v653h-133q-33 0 -32 27zM381 14q0 4 8 21l649 1306q10 20 19.5 27.5t25.5 7.5h102q20 0 21 -14q0 -4 -8 -21l-650 -1306q-10 -20 -19 -27.5t-26 -7.5h-102 q-20 0 -20 14zM1059 29v51q0 98 53 171t170 138l80 45q39 23 65.5 41.5t41 36.5t20.5 38.5t6 45.5v8q0 111 -141 111q-66 0 -100.5 -23.5t-51.5 -81.5q-4 -16 -10 -20t-25 -4h-82q-27 0 -26 20q0 98 82 157.5t219 59.5t213 -54t76 -153v-28q0 -76 -48.5 -135.5 t-158.5 -120.5l-80 -45q-76 -41 -109.5 -77t-40.5 -81h400q33 0 33 -29v-71q0 -16 -6.5 -22.5t-26.5 -6.5h-520q-33 0 -33 29z" />
<glyph unicode="&#xbe;" horiz-adv-x="1730" d="M66 757q0 27 24 27h86q27 0 33 -20q16 -55 54 -79t108 -24q166 0 166 123v16q0 61 -41 95t-119 34h-35q-33 0 -33 29v68q0 27 33 26h29q158 0 157 117v8q0 113 -155 113q-47 0 -76 -9.5t-51 -31.5q-25 -25 -33 -57q-8 -27 -33 -27h-71q-31 0 -31 27q0 76 57 129 q78 72 252 71q139 0 211 -50t72 -148v-19q0 -133 -129 -184q139 -35 139 -186v-31q0 -104 -80 -162.5t-221 -58.5q-180 0 -256 69q-27 23 -42 61t-15 74zM504 14q0 4 8 21l649 1306q10 20 19.5 27.5t25.5 7.5h102q20 0 21 -14q0 -4 -8 -21l-650 -1306q-10 -20 -19 -27.5 t-26 -7.5h-102q-20 0 -20 14zM1049 170v86q0 23 16 45l354 494q8 12 29 12h100q29 0 29 -27v-524h55q29 0 29 -25v-61q0 -25 -29 -25h-55v-118q0 -16 -5 -21.5t-24 -5.5h-69q-20 0 -25.5 5t-5.5 22v118h-369q-31 0 -30 25zM1172 256h276v393z" />
<glyph unicode="&#xbf;" horiz-adv-x="1052" d="M133 -8q0 102 45 177t148 140l57 37q29 18 47.5 35.5t28.5 40t14 53.5t4 76v84q0 27 9.5 35t37.5 8h66q27 0 36 -8t9 -35v-84q0 -68 -7 -116t-25.5 -85t-51.5 -67.5t-84 -63.5l-57 -37q-55 -35 -79 -80t-24 -116v-21q0 -96 65.5 -151.5t178.5 -55.5q217 0 264 185 q8 33 43 32h74q27 0 36 -8t9 -30q0 -45 -23.5 -99.5t-58.5 -89.5q-117 -123 -367 -123q-90 0 -162.5 23.5t-124 67.5t-80 105.5t-28.5 137.5v33zM436 987v39q0 51 34 81t91 30q53 0 86 -31t33 -80v-39q0 -51 -33 -80.5t-86 -29.5q-59 0 -92 29.5t-33 80.5z" />
<glyph unicode="&#xc0;" horiz-adv-x="1232" d="M29 25q0 6 4 18l469 1370q8 25 18 35t35 10h131q25 0 35 -11t18 -34l461 -1370q4 -12 4 -18q0 -25 -33 -25h-92q-27 0 -35 6t-16 29l-121 364h-590l-118 -364q-8 -23 -16.5 -29t-35.5 -6h-86q-33 0 -32 25zM358 1817q0 16 27 16h114q23 0 34 -8t34 -37l137 -189 q8 -10 8 -20q0 -18 -26 -18h-82q-27 0 -38 6t-38 39l-160 188q-10 10 -10 23zM365 543h495l-246 753z" />
<glyph unicode="&#xc1;" horiz-adv-x="1232" d="M29 25q0 6 4 18l469 1370q8 25 18 35t35 10h131q25 0 35 -11t18 -34l461 -1370q4 -12 4 -18q0 -25 -33 -25h-92q-27 0 -35 6t-16 29l-121 364h-590l-118 -364q-8 -23 -16.5 -29t-35.5 -6h-86q-33 0 -32 25zM365 543h495l-246 753zM520 1579q0 10 8 20l137 189 q23 29 34 37t34 8h114q27 0 27 -16q0 -12 -10 -23l-160 -188q-14 -16 -22.5 -25.5t-16.5 -13.5t-16 -5t-21 -1h-82q-27 0 -26 18z" />
<glyph unicode="&#xc2;" horiz-adv-x="1232" d="M29 25q0 6 4 18l469 1370q8 25 18 35t35 10h131q25 0 35 -11t18 -34l461 -1370q4 -12 4 -18q0 -25 -33 -25h-92q-27 0 -35 6t-16 29l-121 364h-590l-118 -364q-8 -23 -16.5 -29t-35.5 -6h-86q-33 0 -32 25zM323 1577q0 10 14 25l164 182q27 29 41.5 38t36.5 9h74 q23 0 37 -9.5t41 -37.5l164 -182q14 -14 14 -25q0 -16 -27 -16h-73q-23 0 -36.5 6t-31.5 26l-125 133l-125 -133q-20 -20 -33.5 -26t-34.5 -6h-73q-27 0 -27 16zM365 543h495l-246 753z" />
<glyph unicode="&#xc3;" horiz-adv-x="1232" d="M29 25q0 6 4 18l469 1370q8 25 18 35t35 10h131q25 0 35 -11t18 -34l461 -1370q4 -12 4 -18q0 -25 -33 -25h-92q-27 0 -35 6t-16 29l-121 364h-590l-118 -364q-8 -23 -16.5 -29t-35.5 -6h-86q-33 0 -32 25zM299 1591v15q0 104 40.5 159.5t118.5 55.5q35 0 65 -9.5 t89 -42.5l65 -34q33 -18 49.5 -24.5t32.5 -6.5q29 0 40.5 20.5t11.5 67.5v14q0 23 22 23h78q23 0 22 -23v-14q0 -104 -40.5 -159.5t-118.5 -55.5q-35 0 -66 10t-88 41l-65 35q-33 18 -49.5 24.5t-32.5 6.5q-29 0 -41.5 -20.5t-12.5 -67.5v-15q0 -23 -22 -22h-76 q-23 0 -22 22zM365 543h495l-246 753z" />
<glyph unicode="&#xc4;" horiz-adv-x="1232" d="M29 25q0 6 4 18l469 1370q8 25 18 35t35 10h131q25 0 35 -11t18 -34l461 -1370q4 -12 4 -18q0 -25 -33 -25h-92q-27 0 -35 6t-16 29l-121 364h-590l-118 -364q-8 -23 -16.5 -29t-35.5 -6h-86q-33 0 -32 25zM325 1708v33q0 41 25.5 63.5t72.5 22.5t75 -22.5t28 -63.5v-33 q0 -41 -28 -64.5t-75 -23.5t-72.5 23.5t-25.5 64.5zM365 543h495l-246 753zM706 1708v33q0 41 25.5 63.5t72.5 22.5t75 -22.5t28 -63.5v-33q0 -41 -28 -64.5t-75 -23.5t-72.5 23.5t-25.5 64.5z" />
<glyph unicode="&#xc5;" horiz-adv-x="1232" d="M29 25q0 6 4 18l469 1370q8 25 18 35t35 10h131q25 0 35 -11t18 -34l461 -1370q4 -12 4 -18q0 -25 -33 -25h-92q-27 0 -35 6t-16 29l-121 364h-590l-118 -364q-8 -23 -16.5 -29t-35.5 -6h-86q-33 0 -32 25zM365 543h495l-246 753zM400 1577q0 94 61.5 154.5t159.5 60.5 t159.5 -58t61.5 -157q0 -96 -60.5 -154.5t-160.5 -58.5t-160.5 58.5t-60.5 154.5zM506 1577q0 -53 31 -85t84 -32t84 32t31 85t-32 86t-83 33t-83 -33t-32 -86z" />
<glyph unicode="&#xc6;" horiz-adv-x="1839" d="M29 23q0 8 6 20l731 1378q12 23 23.5 30t33.5 7h846q25 0 34 -8t9 -33v-57q0 -25 -9 -33t-34 -8h-637v-500h584q25 0 34 -8t9 -33v-57q0 -25 -9.5 -33t-33.5 -8h-584v-541h645q25 0 34 -8t9 -33v-57q0 -25 -9 -33t-34 -8h-766q-25 0 -34 8t-9 33v358h-477l-188 -362 q-12 -23 -22.5 -30t-35.5 -7h-86q-31 0 -30 23zM465 543h403v776z" />
<glyph unicode="&#xc7;" horiz-adv-x="1206" d="M119 551v336q0 117 10 190.5t33 130.5q55 139 175 211t300 72q260 0 375 -131q100 -109 100 -279q0 -23 -9 -31t-36 -8h-76q-27 0 -36 6.5t-11 28.5q-20 268 -317 269q-180 0 -260 -102.5t-80 -332.5v-364q0 -227 79.5 -329.5t258.5 -102.5q298 0 323 272q2 23 11.5 29 t35.5 6h72q27 0 36 -8t9 -31q0 -84 -27.5 -157.5t-76.5 -123.5q-137 -135 -387 -135q-166 0 -284 64.5t-175 199.5q-23 59 -33 132t-10 188zM344 -283q0 25 6 33t29 8h121q45 0 60.5 16.5t15.5 61.5q0 18 -4.5 60.5t-8.5 76.5l-10 95h152l10 -95q4 -41 9 -94t5 -82 q0 -84 -51 -129t-152 -45h-147q-23 0 -29 8.5t-6 32.5v53z" />
<glyph unicode="&#xc8;" horiz-adv-x="1126" d="M156 41v1376q0 25 9 33t34 8h757q25 0 34 -8t9 -33v-57q0 -25 -9 -33t-34 -8h-637v-500h584q25 0 34 -8t9 -33v-57q0 -25 -9 -33t-34 -8h-584v-541h646q25 0 34 -8t9 -33v-57q0 -25 -9.5 -33t-33.5 -8h-766q-25 0 -34 8t-9 33zM320 1817q0 16 27 16h114q23 0 34 -8 t34 -37l137 -189q8 -10 8 -20q0 -18 -26 -18h-82q-27 0 -38 6t-38 39l-160 188q-10 10 -10 23z" />
<glyph unicode="&#xc9;" horiz-adv-x="1126" d="M156 41v1376q0 25 9 33t34 8h757q25 0 34 -8t9 -33v-57q0 -25 -9 -33t-34 -8h-637v-500h584q25 0 34 -8t9 -33v-57q0 -25 -9 -33t-34 -8h-584v-541h646q25 0 34 -8t9 -33v-57q0 -25 -9.5 -33t-33.5 -8h-766q-25 0 -34 8t-9 33zM482 1579q0 10 8 20l137 189q23 29 34 37 t34 8h114q27 0 27 -16q0 -12 -10 -23l-160 -188q-14 -16 -22.5 -25.5t-16.5 -13.5t-16 -5t-21 -1h-82q-27 0 -26 18z" />
<glyph unicode="&#xca;" horiz-adv-x="1126" d="M156 41v1376q0 25 9 33t34 8h757q25 0 34 -8t9 -33v-57q0 -25 -9 -33t-34 -8h-637v-500h584q25 0 34 -8t9 -33v-57q0 -25 -9 -33t-34 -8h-584v-541h646q25 0 34 -8t9 -33v-57q0 -25 -9.5 -33t-33.5 -8h-766q-25 0 -34 8t-9 33zM285 1577q0 10 14 25l164 182 q27 29 41.5 38t36.5 9h74q23 0 37 -9.5t41 -37.5l164 -182q14 -14 14 -25q0 -16 -27 -16h-73q-23 0 -36.5 6t-31.5 26l-125 133l-125 -133q-20 -20 -33.5 -26t-34.5 -6h-73q-27 0 -27 16z" />
<glyph unicode="&#xcb;" horiz-adv-x="1126" d="M156 41v1376q0 25 9 33t34 8h757q25 0 34 -8t9 -33v-57q0 -25 -9 -33t-34 -8h-637v-500h584q25 0 34 -8t9 -33v-57q0 -25 -9 -33t-34 -8h-584v-541h646q25 0 34 -8t9 -33v-57q0 -25 -9.5 -33t-33.5 -8h-766q-25 0 -34 8t-9 33zM287 1708v33q0 41 25.5 63.5t72.5 22.5 t75 -22.5t28 -63.5v-33q0 -41 -28 -64.5t-75 -23.5t-72.5 23.5t-25.5 64.5zM668 1708v33q0 41 25.5 63.5t72.5 22.5t75 -22.5t28 -63.5v-33q0 -41 -28 -64.5t-75 -23.5t-72.5 23.5t-25.5 64.5z" />
<glyph unicode="&#xcc;" horiz-adv-x="475" d="M-20 1817q0 16 27 16h114q23 0 34 -8t34 -37l137 -189q8 -10 8 -20q0 -18 -26 -18h-82q-27 0 -38 6t-38 39l-160 188q-10 10 -10 23zM156 41v1376q0 25 9 33t34 8h77q25 0 34 -8t9 -33v-1376q0 -25 -9 -33t-34 -8h-77q-25 0 -34 8t-9 33z" />
<glyph unicode="&#xcd;" horiz-adv-x="475" d="M142 1579q0 10 8 20l137 189q23 29 34 37t34 8h114q27 0 27 -16q0 -12 -10 -23l-160 -188q-14 -16 -22.5 -25.5t-16.5 -13.5t-16 -5t-21 -1h-82q-27 0 -26 18zM156 41v1376q0 25 9 33t34 8h77q25 0 34 -8t9 -33v-1376q0 -25 -9 -33t-34 -8h-77q-25 0 -34 8t-9 33z" />
<glyph unicode="&#xce;" horiz-adv-x="475" d="M-55 1577q0 10 14 25l164 182q27 29 41.5 38t36.5 9h74q23 0 37 -9.5t41 -37.5l164 -182q14 -14 14 -25q0 -16 -27 -16h-73q-23 0 -36.5 6t-31.5 26l-125 133l-125 -133q-20 -20 -33.5 -26t-34.5 -6h-73q-27 0 -27 16zM156 41v1376q0 25 9 33t34 8h77q25 0 34 -8t9 -33 v-1376q0 -25 -9 -33t-34 -8h-77q-25 0 -34 8t-9 33z" />
<glyph unicode="&#xcf;" horiz-adv-x="475" d="M-53 1708v33q0 41 25.5 63.5t72.5 22.5t75 -22.5t28 -63.5v-33q0 -41 -28 -64.5t-75 -23.5t-72.5 23.5t-25.5 64.5zM156 41v1376q0 25 9 33t34 8h77q25 0 34 -8t9 -33v-1376q0 -25 -9 -33t-34 -8h-77q-25 0 -34 8t-9 33zM328 1708v33q0 41 25.5 63.5t72.5 22.5t75 -22.5 t28 -63.5v-33q0 -41 -28 -64.5t-75 -23.5t-72.5 23.5t-25.5 64.5z" />
<glyph unicode="&#xd0;" horiz-adv-x="1243" d="M23 705v47q0 25 6 33t28 8h99v624q0 25 9 33t34 8h415q168 0 292 -71.5t171 -196.5q47 -129 47 -311v-310q0 -100 -11 -172.5t-36 -132.5q-51 -127 -168.5 -195.5t-283.5 -68.5h-426q-25 0 -34 8t-9 33v623h-99q-23 0 -28.5 8t-5.5 33zM319 139h291q180 0 263 102.5 t83 323.5v328q0 221 -82.5 323.5t-263.5 102.5h-291v-526h183q23 0 29 -8.5t6 -32.5v-47q0 -25 -6.5 -33t-28.5 -8h-183v-525z" />
<glyph unicode="&#xd1;" horiz-adv-x="1273" d="M156 41v1376q0 25 9 33t34 8h100q23 0 34 -8t23 -31l602 -1143v1141q0 25 9.5 33t33.5 8h74q25 0 34 -8t9 -33v-1376q0 -25 -9 -33t-34 -8h-100q-23 0 -34 8t-23 31l-603 1143v-1141q0 -25 -9 -33t-34 -8h-73q-25 0 -34 8t-9 33zM330 1591v15q0 104 40.5 159.5 t118.5 55.5q35 0 65 -9.5t89 -42.5l65 -34q33 -18 49.5 -24.5t32.5 -6.5q29 0 40.5 20.5t11.5 67.5v14q0 23 22 23h78q23 0 22 -23v-14q0 -104 -40.5 -159.5t-118.5 -55.5q-35 0 -66 10t-88 41l-65 35q-33 18 -49.5 24.5t-32.5 6.5q-29 0 -41.5 -20.5t-12.5 -67.5v-15 q0 -23 -22 -22h-76q-23 0 -22 22z" />
<glyph unicode="&#xd2;" horiz-adv-x="1261" d="M119 561v316q0 61 2 108t7 85t14.5 69.5t21.5 62.5q115 289 467 289t467 -279q12 -31 21 -61.5t14.5 -67t7.5 -82t2 -104.5v-315q0 -61 -2 -108.5t-7.5 -85.5t-14.5 -69.5t-21 -62.5q-115 -289 -467 -289q-354 0 -467 275q-12 31 -21.5 62.5t-14.5 68.5t-7 83t-2 105z M287 547q0 -229 82 -332.5t262 -103.5t262 103t82 333v364q0 229 -82 333t-262 104t-262 -103.5t-82 -333.5v-364zM373 1817q0 16 27 16h114q23 0 34 -8t34 -37l137 -189q8 -10 8 -20q0 -18 -26 -18h-82q-27 0 -38 6t-38 39l-160 188q-10 10 -10 23z" />
<glyph unicode="&#xd3;" horiz-adv-x="1261" d="M119 561v316q0 61 2 108t7 85t14.5 69.5t21.5 62.5q115 289 467 289t467 -279q12 -31 21 -61.5t14.5 -67t7.5 -82t2 -104.5v-315q0 -61 -2 -108.5t-7.5 -85.5t-14.5 -69.5t-21 -62.5q-115 -289 -467 -289q-354 0 -467 275q-12 31 -21.5 62.5t-14.5 68.5t-7 83t-2 105z M287 547q0 -229 82 -332.5t262 -103.5t262 103t82 333v364q0 229 -82 333t-262 104t-262 -103.5t-82 -333.5v-364zM535 1579q0 10 8 20l137 189q23 29 34 37t34 8h114q27 0 27 -16q0 -12 -10 -23l-160 -188q-14 -16 -22.5 -25.5t-16.5 -13.5t-16 -5t-21 -1h-82q-27 0 -26 18 z" />
<glyph unicode="&#xd4;" horiz-adv-x="1261" d="M119 561v316q0 61 2 108t7 85t14.5 69.5t21.5 62.5q115 289 467 289t467 -279q12 -31 21 -61.5t14.5 -67t7.5 -82t2 -104.5v-315q0 -61 -2 -108.5t-7.5 -85.5t-14.5 -69.5t-21 -62.5q-115 -289 -467 -289q-354 0 -467 275q-12 31 -21.5 62.5t-14.5 68.5t-7 83t-2 105z M287 547q0 -229 82 -332.5t262 -103.5t262 103t82 333v364q0 229 -82 333t-262 104t-262 -103.5t-82 -333.5v-364zM338 1577q0 10 14 25l164 182q27 29 41.5 38t36.5 9h74q23 0 37 -9.5t41 -37.5l164 -182q14 -14 14 -25q0 -16 -27 -16h-73q-23 0 -36.5 6t-31.5 26l-125 133 l-125 -133q-20 -20 -33.5 -26t-34.5 -6h-73q-27 0 -27 16z" />
<glyph unicode="&#xd5;" horiz-adv-x="1261" d="M119 561v316q0 61 2 108t7 85t14.5 69.5t21.5 62.5q115 289 467 289t467 -279q12 -31 21 -61.5t14.5 -67t7.5 -82t2 -104.5v-315q0 -61 -2 -108.5t-7.5 -85.5t-14.5 -69.5t-21 -62.5q-115 -289 -467 -289q-354 0 -467 275q-12 31 -21.5 62.5t-14.5 68.5t-7 83t-2 105z M287 547q0 -229 82 -332.5t262 -103.5t262 103t82 333v364q0 229 -82 333t-262 104t-262 -103.5t-82 -333.5v-364zM314 1591v15q0 104 40.5 159.5t118.5 55.5q35 0 65 -9.5t89 -42.5l65 -34q33 -18 49.5 -24.5t32.5 -6.5q29 0 40.5 20.5t11.5 67.5v14q0 23 22 23h78 q23 0 22 -23v-14q0 -104 -40.5 -159.5t-118.5 -55.5q-35 0 -66 10t-88 41l-65 35q-33 18 -49.5 24.5t-32.5 6.5q-29 0 -41.5 -20.5t-12.5 -67.5v-15q0 -23 -22 -22h-76q-23 0 -22 22z" />
<glyph unicode="&#xd6;" horiz-adv-x="1261" d="M119 561v316q0 61 2 108t7 85t14.5 69.5t21.5 62.5q115 289 467 289t467 -279q12 -31 21 -61.5t14.5 -67t7.5 -82t2 -104.5v-315q0 -61 -2 -108.5t-7.5 -85.5t-14.5 -69.5t-21 -62.5q-115 -289 -467 -289q-354 0 -467 275q-12 31 -21.5 62.5t-14.5 68.5t-7 83t-2 105z M287 547q0 -229 82 -332.5t262 -103.5t262 103t82 333v364q0 229 -82 333t-262 104t-262 -103.5t-82 -333.5v-364zM340 1708v33q0 41 25.5 63.5t72.5 22.5t75 -22.5t28 -63.5v-33q0 -41 -28 -64.5t-75 -23.5t-72.5 23.5t-25.5 64.5zM721 1708v33q0 41 25.5 63.5t72.5 22.5 t75 -22.5t28 -63.5v-33q0 -41 -28 -64.5t-75 -23.5t-72.5 23.5t-25.5 64.5z" />
<glyph unicode="&#xd7;" d="M219 365q0 12 14 26l263 291l-263 293q-14 14 -14 26q0 10 19 29l36 35q16 16 29 16q10 0 25 -14l256 -287l258 287q14 14 24 14q12 0 29 -16l37 -35q18 -18 18 -29q0 -12 -14 -26l-264 -293l264 -291q14 -14 14 -26q0 -10 -18 -29l-37 -35q-16 -16 -29 -16q-10 0 -24 14 l-258 285l-256 -285q-14 -14 -25 -14q-12 0 -29 16l-36 35q-18 18 -19 29z" />
<glyph unicode="&#xd8;" horiz-adv-x="1261" d="M119 561v316q0 61 2 108t7 85t14.5 69.5t21.5 62.5q115 289 467 289q197 0 321 -90l58 96q12 23 24 23q6 0 12.5 -3.5t16.5 -9.5l33 -20q16 -10 21 -15.5t5 -11.5q0 -8 -10 -24l-72 -123q16 -23 30.5 -47.5t27.5 -53.5q12 -31 21 -61.5t14.5 -67t7.5 -82t2 -104.5v-315 q0 -61 -2 -108.5t-7.5 -85.5t-14.5 -69.5t-21 -62.5q-115 -289 -467 -289q-201 0 -328 90l-53 -92q-12 -23 -25 -22q-8 0 -28 12l-33 20q-16 10 -21.5 15.5t-5.5 11.5q0 8 10 25l70 118q-16 23 -29.5 45.5t-23.5 51.5q-12 31 -21.5 62.5t-14.5 68.5t-7 83t-2 105zM287 547 q0 -139 30 -232l555 949q-81 84 -241 84q-180 0 -262 -103.5t-82 -333.5v-364zM385 197q84 -86 246 -86q180 0 262 103t82 333v364q0 143 -33 236z" />
<glyph unicode="&#xd9;" horiz-adv-x="1261" d="M141 496v921q0 25 9.5 33t33.5 8h78q25 0 34 -8t9 -33v-923q0 -375 311 -375h27q313 0 313 375v923q0 25 9.5 33t33.5 8h78q25 0 34 -8t9 -33v-921q0 -262 -121.5 -395.5t-359.5 -133.5h-18q-479 0 -480 529zM373 1817q0 16 27 16h114q23 0 34 -8t34 -37l137 -189 q8 -10 8 -20q0 -18 -26 -18h-82q-27 0 -38 6t-38 39l-160 188q-10 10 -10 23z" />
<glyph unicode="&#xda;" horiz-adv-x="1261" d="M141 496v921q0 25 9.5 33t33.5 8h78q25 0 34 -8t9 -33v-923q0 -375 311 -375h27q313 0 313 375v923q0 25 9.5 33t33.5 8h78q25 0 34 -8t9 -33v-921q0 -262 -121.5 -395.5t-359.5 -133.5h-18q-479 0 -480 529zM535 1579q0 10 8 20l137 189q23 29 34 37t34 8h114 q27 0 27 -16q0 -12 -10 -23l-160 -188q-14 -16 -22.5 -25.5t-16.5 -13.5t-16 -5t-21 -1h-82q-27 0 -26 18z" />
<glyph unicode="&#xdb;" horiz-adv-x="1261" d="M141 496v921q0 25 9.5 33t33.5 8h78q25 0 34 -8t9 -33v-923q0 -375 311 -375h27q313 0 313 375v923q0 25 9.5 33t33.5 8h78q25 0 34 -8t9 -33v-921q0 -262 -121.5 -395.5t-359.5 -133.5h-18q-479 0 -480 529zM338 1577q0 10 14 25l164 182q27 29 41.5 38t36.5 9h74 q23 0 37 -9.5t41 -37.5l164 -182q14 -14 14 -25q0 -16 -27 -16h-73q-23 0 -36.5 6t-31.5 26l-125 133l-125 -133q-20 -20 -33.5 -26t-34.5 -6h-73q-27 0 -27 16z" />
<glyph unicode="&#xdc;" horiz-adv-x="1261" d="M141 496v921q0 25 9.5 33t33.5 8h78q25 0 34 -8t9 -33v-923q0 -375 311 -375h27q313 0 313 375v923q0 25 9.5 33t33.5 8h78q25 0 34 -8t9 -33v-921q0 -262 -121.5 -395.5t-359.5 -133.5h-18q-479 0 -480 529zM340 1708v33q0 41 25.5 63.5t72.5 22.5t75 -22.5t28 -63.5 v-33q0 -41 -28 -64.5t-75 -23.5t-72.5 23.5t-25.5 64.5zM721 1708v33q0 41 25.5 63.5t72.5 22.5t75 -22.5t28 -63.5v-33q0 -41 -28 -64.5t-75 -23.5t-72.5 23.5t-25.5 64.5z" />
<glyph unicode="&#xdd;" horiz-adv-x="1103" d="M29 1434q0 25 37 24h90q25 0 35 -6t20 -29l348 -704l342 704q10 23 20.5 29t34.5 6h82q37 0 37 -24q0 -8 -6 -21l-434 -860v-512q0 -25 -9.5 -33t-33.5 -8h-78q-25 0 -34 8t-9 33v512l-436 860q-6 12 -6 21zM455 1579q0 10 8 20l137 189q23 29 34 37t34 8h114 q27 0 27 -16q0 -12 -10 -23l-160 -188q-14 -16 -22.5 -25.5t-16.5 -13.5t-16 -5t-21 -1h-82q-27 0 -26 18z" />
<glyph unicode="&#xde;" horiz-adv-x="1116" d="M156 41v1376q0 25 9 33t34 8h73q25 0 34 -8t9 -33v-233h283q244 0 355.5 -101.5t111.5 -324.5v-41q0 -416 -467 -416h-283v-260q0 -25 -9 -33t-34 -8h-73q-25 0 -34 8t-9 33zM315 440h289q158 0 224.5 62.5t66.5 214.5v33q0 162 -65.5 228t-225.5 66h-289v-604z" />
<glyph unicode="&#xdf;" horiz-adv-x="1089" d="M141 41v981q0 246 96.5 355.5t311.5 109.5q193 0 295 -85t102 -241v-35q0 -117 -48 -188.5t-157 -116.5q248 -49 248 -338v-73q0 -410 -422 -410h-45q-23 0 -29 8t-6 33v61q0 25 6.5 33t28.5 8h10q156 0 221.5 68t65.5 227v8q0 156 -67.5 225.5t-219.5 69.5h-10 q-23 0 -29 8.5t-6 32.5v58q0 25 6.5 33t28.5 8h8q115 0 180.5 65.5t65.5 179.5q0 123 -55 178.5t-178 55.5q-68 0 -113 -17.5t-73.5 -58.5t-41 -107.5t-12.5 -162.5v-973q0 -25 -9 -33t-34 -8h-76q-25 0 -34 8t-9 33z" />
<glyph unicode="&#xe0;" horiz-adv-x="1036" d="M90 305q0 182 104.5 266t327.5 84q41 0 104.5 -4t127.5 -12v121q0 113 -52.5 163t-171.5 50q-96 0 -146 -27.5t-79 -95.5q-10 -23 -16 -29t-31 -6h-74q-27 0 -36 8t-9 31q0 29 16.5 62.5t41.5 62.5q53 61 133 92t200 31q205 0 295 -79t90 -259v-420q0 -186 -92 -275 t-295 -89h-30q-209 0 -308.5 76.5t-99.5 248.5zM256 307q0 -100 56.5 -145t197.5 -45h18q121 0 173.5 58t52.5 187v140q-61 8 -121.5 13t-97.5 5q-158 0 -218.5 -49t-60.5 -164zM324 1479q0 16 27 16h90q29 0 39 -7t28 -38l125 -203q8 -14 8 -22q0 -16 -26 -17h-70 q-25 0 -35 6.5t-32 38.5l-146 203q-8 14 -8 23z" />
<glyph unicode="&#xe1;" horiz-adv-x="1036" d="M90 305q0 182 104.5 266t327.5 84q41 0 104.5 -4t127.5 -12v121q0 113 -52.5 163t-171.5 50q-96 0 -146 -27.5t-79 -95.5q-10 -23 -16 -29t-31 -6h-74q-27 0 -36 8t-9 31q0 29 16.5 62.5t41.5 62.5q53 61 133 92t200 31q205 0 295 -79t90 -259v-420q0 -186 -92 -275 t-295 -89h-30q-209 0 -308.5 76.5t-99.5 248.5zM256 307q0 -100 56.5 -145t197.5 -45h18q121 0 173.5 58t52.5 187v140q-61 8 -121.5 13t-97.5 5q-158 0 -218.5 -49t-60.5 -164zM439 1225q0 8 8 22l125 203q18 31 28.5 38t38.5 7h90q27 0 27 -16q0 -8 -8 -23l-146 -203 q-23 -33 -33 -39t-34 -6h-70q-27 0 -26 17z" />
<glyph unicode="&#xe2;" horiz-adv-x="1036" d="M90 305q0 182 104.5 266t327.5 84q41 0 104.5 -4t127.5 -12v121q0 113 -52.5 163t-171.5 50q-96 0 -146 -27.5t-79 -95.5q-10 -23 -16 -29t-31 -6h-74q-27 0 -36 8t-9 31q0 29 16.5 62.5t41.5 62.5q53 61 133 92t200 31q205 0 295 -79t90 -259v-420q0 -186 -92 -275 t-295 -89h-30q-209 0 -308.5 76.5t-99.5 248.5zM256 307q0 -100 56.5 -145t197.5 -45h18q121 0 173.5 58t52.5 187v140q-61 8 -121.5 13t-97.5 5q-158 0 -218.5 -49t-60.5 -164zM273 1225q0 10 10 22l156 203q23 29 34 37t33 8h66q23 0 34 -8t33 -37l156 -203q10 -12 10 -22 q0 -16 -26 -17h-64q-23 0 -33 6.5t-34 38.5l-109 138l-106 -138q-23 -29 -33.5 -37t-34.5 -8h-66q-27 0 -26 17z" />
<glyph unicode="&#xe3;" horiz-adv-x="1036" d="M90 305q0 182 104.5 266t327.5 84q41 0 104.5 -4t127.5 -12v121q0 113 -52.5 163t-171.5 50q-96 0 -146 -27.5t-79 -95.5q-10 -23 -16 -29t-31 -6h-74q-27 0 -36 8t-9 31q0 29 16.5 62.5t41.5 62.5q53 61 133 92t200 31q205 0 295 -79t90 -259v-420q0 -186 -92 -275 t-295 -89h-30q-209 0 -308.5 76.5t-99.5 248.5zM236 1245v15q0 102 38.5 155t114.5 53q37 0 67 -10t81 -41l59 -37q31 -18 45.5 -24t30.5 -6q51 0 51 88v14q0 23 23 23h74q23 0 22 -23v-14q0 -102 -39 -155.5t-114 -53.5q-37 0 -67 10t-81 41l-59 37q-31 18 -45.5 24.5 t-30.5 6.5q-51 0 -51 -88v-15q0 -23 -23 -22h-74q-23 0 -22 22zM256 307q0 -100 56.5 -145t197.5 -45h18q121 0 173.5 58t52.5 187v140q-61 8 -121.5 13t-97.5 5q-158 0 -218.5 -49t-60.5 -164z" />
<glyph unicode="&#xe4;" horiz-adv-x="1036" d="M90 305q0 182 104.5 266t327.5 84q41 0 104.5 -4t127.5 -12v121q0 113 -52.5 163t-171.5 50q-96 0 -146 -27.5t-79 -95.5q-10 -23 -16 -29t-31 -6h-74q-27 0 -36 8t-9 31q0 29 16.5 62.5t41.5 62.5q53 61 133 92t200 31q205 0 295 -79t90 -259v-420q0 -186 -92 -275 t-295 -89h-30q-209 0 -308.5 76.5t-99.5 248.5zM256 307q0 -100 56.5 -145t197.5 -45h18q121 0 173.5 58t52.5 187v140q-61 8 -121.5 13t-97.5 5q-158 0 -218.5 -49t-60.5 -164zM265 1356v33q0 39 25.5 61.5t70.5 22.5q47 0 73.5 -23t26.5 -61v-33q0 -41 -26.5 -63.5 t-73.5 -22.5q-45 0 -70.5 22.5t-25.5 63.5zM617 1356v33q0 39 25.5 61.5t70.5 22.5q47 0 73.5 -23t26.5 -61v-33q0 -41 -26.5 -63.5t-73.5 -22.5q-45 0 -70.5 22.5t-25.5 63.5z" />
<glyph unicode="&#xe5;" horiz-adv-x="1036" d="M90 305q0 182 104.5 266t327.5 84q41 0 104.5 -4t127.5 -12v121q0 113 -52.5 163t-171.5 50q-96 0 -146 -27.5t-79 -95.5q-10 -23 -16 -29t-31 -6h-74q-27 0 -36 8t-9 31q0 29 16.5 62.5t41.5 62.5q53 61 133 92t200 31q205 0 295 -79t90 -259v-420q0 -186 -92 -275 t-295 -89h-30q-209 0 -308.5 76.5t-99.5 248.5zM256 307q0 -100 56.5 -145t197.5 -45h18q121 0 173.5 58t52.5 187v140q-61 8 -121.5 13t-97.5 5q-158 0 -218.5 -49t-60.5 -164zM318 1380q0 94 61.5 154.5t159.5 60.5t159.5 -58t61.5 -157q0 -96 -60.5 -154.5t-160.5 -58.5 t-160.5 58.5t-60.5 154.5zM424 1380q0 -53 31 -84.5t84 -31.5t84 31.5t31 84.5t-32 86t-83 33t-83 -33t-32 -86z" />
<glyph unicode="&#xe6;" horiz-adv-x="1703" d="M90 305q0 182 104.5 266t327.5 84q41 0 104.5 -4t127.5 -12v121q0 113 -52.5 163t-171.5 50q-98 0 -147 -29t-78 -94q-10 -23 -16 -29t-31 -6h-74q-27 0 -36 8t-9 31q0 29 15.5 62.5t42.5 62.5q53 61 133 92t200 31q133 0 215 -35t121 -111q111 145 320 146 q422 0 422 -469v-105q0 -25 -9.5 -33t-33.5 -8h-650v-38q0 -338 275 -338q174 0 231 133q10 25 17.5 30t29.5 5h74q29 0 37 -5.5t8 -27.5q0 -29 -22.5 -74t-51.5 -78q-51 -57 -138 -90t-191 -33q-231 0 -338 156q-84 -147 -299 -147h-55q-209 0 -305.5 79.5t-96.5 245.5z M256 307q0 -100 57.5 -145t196.5 -45h18q121 0 173.5 56t52.5 185v144q-61 8 -122 13t-97 5q-78 0 -131.5 -11t-86 -37t-47 -66.5t-14.5 -98.5zM915 621h529q0 182 -62.5 268t-195.5 86q-268 0 -271 -354z" />
<glyph unicode="&#xe7;" horiz-adv-x="1015" d="M100 418v203q0 240 106.5 360.5t313.5 120.5q223 0 324 -113q78 -88 78 -198q0 -23 -9.5 -31t-35.5 -8h-66q-27 0 -35 6t-12 28q-10 86 -70.5 132.5t-165.5 46.5q-139 0 -202.5 -81t-63.5 -261v-172q0 -176 63.5 -258t198.5 -82q209 0 240 176q4 23 12 29t35 6h68 q27 0 36 -8.5t9 -30.5q0 -37 -15.5 -83t-44.5 -87q-94 -141 -344 -142q-207 0 -313.5 113t-106.5 334zM242 -283q0 25 6 33t28 8h125q45 0 60.5 16.5t15.5 61.5q0 18 -4 60.5t-8 76.5l-10 95h147l10 -95q4 -41 9.5 -94t5.5 -82q0 -84 -51.5 -129t-151.5 -45h-148 q-23 0 -28.5 8.5t-5.5 32.5v53z" />
<glyph unicode="&#xe8;" horiz-adv-x="1050" d="M100 436v154q0 248 111 380t321 132q422 0 422 -469v-105q0 -25 -9 -33t-34 -8h-649v-38q0 -338 275 -338q174 0 231 133q10 25 17.5 30t29.5 5h74q29 0 37 -5.5t8 -27.5q0 -29 -22.5 -74t-51.5 -78q-51 -57 -138 -90t-192 -33q-207 0 -318.5 121t-111.5 344zM262 621 h529q0 182 -63 268t-196 86q-268 0 -270 -354zM322 1479q0 16 27 16h90q29 0 39 -7t28 -38l125 -203q8 -14 8 -22q0 -16 -26 -17h-70q-25 0 -35 6.5t-32 38.5l-146 203q-8 14 -8 23z" />
<glyph unicode="&#xe9;" horiz-adv-x="1050" d="M100 436v154q0 248 111 380t321 132q422 0 422 -469v-105q0 -25 -9 -33t-34 -8h-649v-38q0 -338 275 -338q174 0 231 133q10 25 17.5 30t29.5 5h74q29 0 37 -5.5t8 -27.5q0 -29 -22.5 -74t-51.5 -78q-51 -57 -138 -90t-192 -33q-207 0 -318.5 121t-111.5 344zM262 621 h529q0 182 -63 268t-196 86q-268 0 -270 -354zM437 1225q0 8 8 22l125 203q18 31 28.5 38t38.5 7h90q27 0 27 -16q0 -8 -8 -23l-146 -203q-23 -33 -33 -39t-34 -6h-70q-27 0 -26 17z" />
<glyph unicode="&#xea;" horiz-adv-x="1050" d="M100 436v154q0 248 111 380t321 132q422 0 422 -469v-105q0 -25 -9 -33t-34 -8h-649v-38q0 -338 275 -338q174 0 231 133q10 25 17.5 30t29.5 5h74q29 0 37 -5.5t8 -27.5q0 -29 -22.5 -74t-51.5 -78q-51 -57 -138 -90t-192 -33q-207 0 -318.5 121t-111.5 344zM262 621 h529q0 182 -63 268t-196 86q-268 0 -270 -354zM271 1225q0 10 10 22l156 203q23 29 34 37t33 8h66q23 0 34 -8t33 -37l156 -203q10 -12 10 -22q0 -16 -26 -17h-64q-23 0 -33 6.5t-34 38.5l-109 138l-106 -138q-23 -29 -33.5 -37t-34.5 -8h-66q-27 0 -26 17z" />
<glyph unicode="&#xeb;" horiz-adv-x="1050" d="M100 436v154q0 248 111 380t321 132q422 0 422 -469v-105q0 -25 -9 -33t-34 -8h-649v-38q0 -338 275 -338q174 0 231 133q10 25 17.5 30t29.5 5h74q29 0 37 -5.5t8 -27.5q0 -29 -22.5 -74t-51.5 -78q-51 -57 -138 -90t-192 -33q-207 0 -318.5 121t-111.5 344zM262 621 h529q0 182 -63 268t-196 86q-268 0 -270 -354zM263 1356v33q0 39 25.5 61.5t70.5 22.5q47 0 73.5 -23t26.5 -61v-33q0 -41 -26.5 -63.5t-73.5 -22.5q-45 0 -70.5 22.5t-25.5 63.5zM615 1356v33q0 39 25.5 61.5t70.5 22.5q47 0 73.5 -23t26.5 -61v-33q0 -41 -26.5 -63.5 t-73.5 -22.5q-45 0 -70.5 22.5t-25.5 63.5z" />
<glyph unicode="&#xec;" horiz-adv-x="444" d="M6 1479q0 16 27 16h90q29 0 39 -7t28 -38l125 -203q8 -14 8 -22q0 -16 -26 -17h-70q-25 0 -35 6.5t-32 38.5l-146 203q-8 14 -8 23zM141 43v987q0 29 8.5 36t36.5 7h72q29 0 37 -7t8 -36v-987q0 -29 -8 -36t-37 -7h-72q-45 0 -45 43z" />
<glyph unicode="&#xed;" horiz-adv-x="444" d="M121 1225q0 8 8 22l125 203q18 31 28.5 38t38.5 7h90q27 0 27 -16q0 -8 -8 -23l-146 -203q-23 -33 -33 -39t-34 -6h-70q-27 0 -26 17zM141 43v987q0 29 8.5 36t36.5 7h72q29 0 37 -7t8 -36v-987q0 -29 -8 -36t-37 -7h-72q-45 0 -45 43z" />
<glyph unicode="&#xee;" horiz-adv-x="444" d="M-45 1225q0 10 10 22l156 203q23 29 34 37t33 8h66q23 0 34 -8t33 -37l156 -203q10 -12 10 -22q0 -16 -26 -17h-64q-23 0 -33 6.5t-34 38.5l-109 138l-106 -138q-23 -29 -33.5 -37t-34.5 -8h-66q-27 0 -26 17zM141 43v987q0 29 8.5 36t36.5 7h72q29 0 37 -7t8 -36v-987 q0 -29 -8 -36t-37 -7h-72q-45 0 -45 43z" />
<glyph unicode="&#xef;" horiz-adv-x="444" d="M-53 1356v33q0 39 25.5 61.5t70.5 22.5q47 0 73.5 -23t26.5 -61v-33q0 -41 -26.5 -63.5t-73.5 -22.5q-45 0 -70.5 22.5t-25.5 63.5zM141 43v987q0 29 8.5 36t36.5 7h72q29 0 37 -7t8 -36v-987q0 -29 -8 -36t-37 -7h-72q-45 0 -45 43zM299 1356v33q0 39 25.5 61.5 t70.5 22.5q47 0 73.5 -23t26.5 -61v-33q0 -41 -26.5 -63.5t-73.5 -22.5q-45 0 -70.5 22.5t-25.5 63.5z" />
<glyph unicode="&#xf0;" horiz-adv-x="1071" d="M100 373v223q0 94 30 172t83 133t130 86t171 31q80 0 162 -27.5t127 -79.5q-4 53 -15.5 96.5t-30 80t-46 68.5t-66.5 63l-160 -121q-16 -10 -22 -11q-8 0 -14.5 4.5t-16.5 18.5l-18 25q-14 18 -15 28q0 12 15 23l133 100q-35 23 -78 43q-25 10 -25 27q0 10 11 30l24 50 q12 27 31 26q10 0 27 -8q39 -20 70.5 -37.5t60.5 -38.5l116 88q14 10 23 11q8 0 14 -4.5t17 -18.5l18 -24q14 -20 14 -29q0 -10 -14 -23l-94 -71q59 -51 99 -108.5t64.5 -128.5t35 -157t10.5 -196v-324q0 -203 -111.5 -312.5t-322.5 -109.5t-324 103.5t-113 298.5zM262 406 q1 -295 275 -295q272 0 272 292v197q0 279 -272 279q-274 0 -275 -293v-180z" />
<glyph unicode="&#xf1;" horiz-adv-x="1097" d="M141 41v991q0 25 9.5 33t33.5 8h72q25 0 34 -8t9 -33v-71q51 68 132 104.5t183 36.5q172 0 262.5 -92t90.5 -269v-700q0 -25 -9.5 -33t-33.5 -8h-76q-25 0 -34 8t-9 33v666q0 131 -55.5 191t-178.5 60t-195.5 -78.5t-72.5 -209.5v-629q0 -25 -9 -33t-34 -8h-76 q-25 0 -34 8t-9 33zM270 1245v15q0 102 38.5 155t114.5 53q37 0 67 -10t81 -41l59 -37q31 -18 45.5 -24t30.5 -6q51 0 51 88v14q0 23 23 23h74q23 0 22 -23v-14q0 -102 -39 -155.5t-114 -53.5q-37 0 -67 10t-81 41l-59 37q-31 18 -45.5 24.5t-30.5 6.5q-51 0 -51 -88v-15 q0 -23 -23 -22h-74q-23 0 -22 22z" />
<glyph unicode="&#xf2;" horiz-adv-x="1085" d="M100 418v217q0 223 116 345t327 122t326.5 -117t115.5 -330v-217q0 -223 -115.5 -345t-326.5 -122t-327 117t-116 330zM262 451q0 -340 281 -340t280 340v172q0 340 -280 340q-281 0 -281 -340v-172zM328 1479q0 16 27 16h90q29 0 39 -7t28 -38l125 -203q8 -14 8 -22 q0 -16 -26 -17h-70q-25 0 -35 6.5t-32 38.5l-146 203q-8 14 -8 23z" />
<glyph unicode="&#xf3;" horiz-adv-x="1085" d="M100 418v217q0 223 116 345t327 122t326.5 -117t115.5 -330v-217q0 -223 -115.5 -345t-326.5 -122t-327 117t-116 330zM262 451q0 -340 281 -340t280 340v172q0 340 -280 340q-281 0 -281 -340v-172zM443 1225q0 8 8 22l125 203q18 31 28.5 38t38.5 7h90q27 0 27 -16 q0 -8 -8 -23l-146 -203q-23 -33 -33 -39t-34 -6h-70q-27 0 -26 17z" />
<glyph unicode="&#xf4;" horiz-adv-x="1085" d="M100 418v217q0 223 116 345t327 122t326.5 -117t115.5 -330v-217q0 -223 -115.5 -345t-326.5 -122t-327 117t-116 330zM262 451q0 -340 281 -340t280 340v172q0 340 -280 340q-281 0 -281 -340v-172zM277 1225q0 10 10 22l156 203q23 29 34 37t33 8h66q23 0 34 -8t33 -37 l156 -203q10 -12 10 -22q0 -16 -26 -17h-64q-23 0 -33 6.5t-34 38.5l-109 138l-106 -138q-23 -29 -33.5 -37t-34.5 -8h-66q-27 0 -26 17z" />
<glyph unicode="&#xf5;" horiz-adv-x="1085" d="M100 418v217q0 223 116 345t327 122t326.5 -117t115.5 -330v-217q0 -223 -115.5 -345t-326.5 -122t-327 117t-116 330zM240 1245v15q0 102 38.5 155t114.5 53q37 0 67 -10t81 -41l59 -37q31 -18 45.5 -24t30.5 -6q51 0 51 88v14q0 23 23 23h74q23 0 22 -23v-14 q0 -102 -39 -155.5t-114 -53.5q-37 0 -67 10t-81 41l-59 37q-31 18 -45.5 24.5t-30.5 6.5q-51 0 -51 -88v-15q0 -23 -23 -22h-74q-23 0 -22 22zM262 451q0 -340 281 -340t280 340v172q0 340 -280 340q-281 0 -281 -340v-172z" />
<glyph unicode="&#xf6;" horiz-adv-x="1085" d="M100 418v217q0 223 116 345t327 122t326.5 -117t115.5 -330v-217q0 -223 -115.5 -345t-326.5 -122t-327 117t-116 330zM262 451q0 -340 281 -340t280 340v172q0 340 -280 340q-281 0 -281 -340v-172zM269 1356v33q0 39 25.5 61.5t70.5 22.5q47 0 73.5 -23t26.5 -61v-33 q0 -41 -26.5 -63.5t-73.5 -22.5q-45 0 -70.5 22.5t-25.5 63.5zM621 1356v33q0 39 25.5 61.5t70.5 22.5q47 0 73.5 -23t26.5 -61v-33q0 -41 -26.5 -63.5t-73.5 -22.5q-45 0 -70.5 22.5t-25.5 63.5z" />
<glyph unicode="&#xf7;" d="M156 664v51q0 25 6 33t28 8h787q23 0 29 -8.5t6 -32.5v-51q0 -25 -6.5 -33t-28.5 -8h-787q-23 0 -28.5 8t-5.5 33zM489 324v32q0 43 26 69t69 26t68.5 -26t25.5 -69v-32q0 -41 -25.5 -68t-68.5 -27q-41 0 -68 27t-27 68zM489 1022v33q0 43 26 68.5t69 25.5t68.5 -25.5 t25.5 -68.5v-33q0 -41 -25.5 -67.5t-68.5 -26.5q-41 0 -68 26.5t-27 67.5z" />
<glyph unicode="&#xf8;" horiz-adv-x="1085" d="M100 418v217q0 223 116 345t327 122q162 0 270 -72l55 82q12 18 25 18q10 0 29 -14l22 -16q23 -16 23 -27q0 -10 -15 -31l-57 -86q90 -115 90 -301v-217q0 -223 -115.5 -345t-326.5 -122q-158 0 -264 66l-48 -72q-12 -18 -24 -18q-10 0 -29 14l-22 16q-23 16 -23 27 q0 10 14 31l50 74q-96 115 -97 309zM262 451q0 -123 33 -197l434 649q-69 60 -186 60q-281 0 -281 -340v-172zM362 162q66 -51 181 -51q281 0 280 340v172q0 109 -28 184z" />
<glyph unicode="&#xf9;" horiz-adv-x="1077" d="M131 332v700q0 25 9.5 33t33.5 8h76q25 0 34 -8t9 -33v-665q0 -131 53 -191.5t170 -60.5t187.5 78.5t70.5 209.5v629q0 25 9.5 33t33.5 8h76q25 0 34 -8t9 -33v-991q0 -25 -9 -33t-34 -8h-72q-25 0 -34 8t-9 33v70q-53 -68 -130 -104t-175 -36q-166 0 -254 92.5 t-88 268.5zM317 1479q0 16 27 16h90q29 0 39 -7t28 -38l125 -203q8 -14 8 -22q0 -16 -26 -17h-70q-25 0 -35 6.5t-32 38.5l-146 203q-8 14 -8 23z" />
<glyph unicode="&#xfa;" horiz-adv-x="1077" d="M131 332v700q0 25 9.5 33t33.5 8h76q25 0 34 -8t9 -33v-665q0 -131 53 -191.5t170 -60.5t187.5 78.5t70.5 209.5v629q0 25 9.5 33t33.5 8h76q25 0 34 -8t9 -33v-991q0 -25 -9 -33t-34 -8h-72q-25 0 -34 8t-9 33v70q-53 -68 -130 -104t-175 -36q-166 0 -254 92.5 t-88 268.5zM432 1225q0 8 8 22l125 203q18 31 28.5 38t38.5 7h90q27 0 27 -16q0 -8 -8 -23l-146 -203q-23 -33 -33 -39t-34 -6h-70q-27 0 -26 17z" />
<glyph unicode="&#xfb;" horiz-adv-x="1077" d="M131 332v700q0 25 9.5 33t33.5 8h76q25 0 34 -8t9 -33v-665q0 -131 53 -191.5t170 -60.5t187.5 78.5t70.5 209.5v629q0 25 9.5 33t33.5 8h76q25 0 34 -8t9 -33v-991q0 -25 -9 -33t-34 -8h-72q-25 0 -34 8t-9 33v70q-53 -68 -130 -104t-175 -36q-166 0 -254 92.5 t-88 268.5zM266 1225q0 10 10 22l156 203q23 29 34 37t33 8h66q23 0 34 -8t33 -37l156 -203q10 -12 10 -22q0 -16 -26 -17h-64q-23 0 -33 6.5t-34 38.5l-109 138l-106 -138q-23 -29 -33.5 -37t-34.5 -8h-66q-27 0 -26 17z" />
<glyph unicode="&#xfc;" horiz-adv-x="1077" d="M131 332v700q0 25 9.5 33t33.5 8h76q25 0 34 -8t9 -33v-665q0 -131 53 -191.5t170 -60.5t187.5 78.5t70.5 209.5v629q0 25 9.5 33t33.5 8h76q25 0 34 -8t9 -33v-991q0 -25 -9 -33t-34 -8h-72q-25 0 -34 8t-9 33v70q-53 -68 -130 -104t-175 -36q-166 0 -254 92.5 t-88 268.5zM258 1356v33q0 39 25.5 61.5t70.5 22.5q47 0 73.5 -23t26.5 -61v-33q0 -41 -26.5 -63.5t-73.5 -22.5q-45 0 -70.5 22.5t-25.5 63.5zM610 1356v33q0 39 25.5 61.5t70.5 22.5q47 0 73.5 -23t26.5 -61v-33q0 -41 -26.5 -63.5t-73.5 -22.5q-45 0 -70.5 22.5 t-25.5 63.5z" />
<glyph unicode="&#xfd;" horiz-adv-x="946" d="M23 1049q0 25 32 24h90q20 0 28.5 -8t19.5 -35l292 -790l273 790q10 27 18 35t29 8h86q33 0 33 -24q0 -6 -6 -25l-386 -1077q-33 -94 -68.5 -152.5t-76.5 -90.5t-89 -43t-108 -11h-47q-23 0 -28.5 8t-5.5 33v61q0 25 6 33t28 8h25q43 0 74.5 6t56.5 24.5t44 51.5t38 84 l25 72l-377 993q-6 18 -6 25zM375 1225q0 8 8 22l125 203q18 31 28.5 38t38.5 7h90q27 0 27 -16q0 -8 -8 -23l-146 -203q-23 -33 -33 -39t-34 -6h-70q-27 0 -26 17z" />
<glyph unicode="&#xfe;" horiz-adv-x="1124" d="M141 -309v1726q0 25 9.5 33t33.5 8h76q25 0 34 -8t9 -33v-442q47 61 125 94t176 33q420 0 420 -467v-186q0 -477 -420 -478q-98 0 -176 33t-125 94v-407q0 -25 -9 -33t-34 -8h-76q-25 0 -34 8t-9 33zM303 451q0 -166 70.5 -253t208.5 -87q281 0 280 340v172 q0 340 -280 340q-137 0 -208 -87.5t-71 -252.5v-172z" />
<glyph unicode="&#xff;" horiz-adv-x="946" d="M23 1049q0 25 32 24h90q20 0 28.5 -8t19.5 -35l292 -790l273 790q10 27 18 35t29 8h86q33 0 33 -24q0 -6 -6 -25l-386 -1077q-33 -94 -68.5 -152.5t-76.5 -90.5t-89 -43t-108 -11h-47q-23 0 -28.5 8t-5.5 33v61q0 25 6 33t28 8h25q43 0 74.5 6t56.5 24.5t44 51.5t38 84 l25 72l-377 993q-6 18 -6 25zM201 1356v33q0 39 25.5 61.5t70.5 22.5q47 0 73.5 -23t26.5 -61v-33q0 -41 -26.5 -63.5t-73.5 -22.5q-45 0 -70.5 22.5t-25.5 63.5zM553 1356v33q0 39 25.5 61.5t70.5 22.5q47 0 73.5 -23t26.5 -61v-33q0 -41 -26.5 -63.5t-73.5 -22.5 q-45 0 -70.5 22.5t-25.5 63.5z" />
<glyph unicode="&#x152;" horiz-adv-x="1884" d="M119 584v260q0 61 2 108t7 85t14.5 70t21.5 62q115 289 467 289h1083q25 0 34 -8t9 -33v-57q0 -25 -9 -33t-34 -8h-637v-500h584q25 0 34 -8t9 -33v-57q0 -25 -9 -33t-34 -8h-584v-541h645q25 0 34 -8t9 -33v-57q0 -25 -9 -33t-34 -8h-1091q-352 0 -467 274 q-12 31 -21.5 61t-14.5 65.5t-7 79.5t-2 104zM287 580q0 -229 87 -335t277 -106h262v1180h-262q-190 0 -277 -105.5t-87 -334.5v-299z" />
<glyph unicode="&#x153;" horiz-adv-x="1773" d="M100 418v217q0 223 116 345t327 122q129 0 220 -48t142 -139q106 186 350 187q422 0 422 -469v-105q0 -25 -9 -33t-34 -8h-649v-38q0 -338 275 -338q174 0 231 133q10 25 17.5 30t29.5 5h74q29 0 37 -5.5t8 -27.5q0 -29 -22.5 -74t-51.5 -78q-51 -57 -138 -90t-192 -33 q-250 0 -352 179q-53 -86 -143 -132.5t-215 -46.5q-211 0 -327 117t-116 330zM262 451q0 -340 281 -340t280 340v172q1 340 -280 340t-281 -340v-172zM985 621h528q0 182 -62.5 268t-195.5 86q-268 0 -270 -354z" />
<glyph unicode="&#x178;" horiz-adv-x="1103" d="M29 1434q0 25 37 24h90q25 0 35 -6t20 -29l348 -704l342 704q10 23 20.5 29t34.5 6h82q37 0 37 -24q0 -8 -6 -21l-434 -860v-512q0 -25 -9.5 -33t-33.5 -8h-78q-25 0 -34 8t-9 33v512l-436 860q-6 12 -6 21zM260 1708v33q0 41 25.5 63.5t72.5 22.5t75 -22.5t28 -63.5v-33 q0 -41 -28 -64.5t-75 -23.5t-72.5 23.5t-25.5 64.5zM641 1708v33q0 41 25.5 63.5t72.5 22.5t75 -22.5t28 -63.5v-33q0 -41 -28 -64.5t-75 -23.5t-72.5 23.5t-25.5 64.5z" />
<glyph unicode="&#x2c6;" horiz-adv-x="1024" d="M246 1225q0 10 10 22l156 203q23 29 34 37t33 8h66q23 0 34 -8t33 -37l156 -203q10 -12 10 -22q0 -16 -26 -17h-64q-23 0 -33 6.5t-34 38.5l-109 138l-106 -138q-23 -29 -33.5 -37t-34.5 -8h-66q-27 0 -26 17z" />
<glyph unicode="&#x2dc;" horiz-adv-x="983" d="M189 1245v15q0 102 38.5 155t114.5 53q37 0 67 -10t81 -41l59 -37q31 -18 45.5 -24t30.5 -6q51 0 51 88v14q0 23 23 23h74q23 0 22 -23v-14q0 -102 -39 -155.5t-114 -53.5q-37 0 -67 10t-81 41l-59 37q-31 18 -45.5 24.5t-30.5 6.5q-51 0 -51 -88v-15q0 -23 -23 -22h-74 q-23 0 -22 22z" />
<glyph unicode="&#x2000;" horiz-adv-x="916" />
<glyph unicode="&#x2001;" horiz-adv-x="1833" />
<glyph unicode="&#x2002;" horiz-adv-x="916" />
<glyph unicode="&#x2003;" horiz-adv-x="1833" />
<glyph unicode="&#x2004;" horiz-adv-x="611" />
<glyph unicode="&#x2005;" horiz-adv-x="458" />
<glyph unicode="&#x2006;" horiz-adv-x="305" />
<glyph unicode="&#x2007;" horiz-adv-x="305" />
<glyph unicode="&#x2008;" horiz-adv-x="229" />
<glyph unicode="&#x2009;" horiz-adv-x="366" />
<glyph unicode="&#x200a;" horiz-adv-x="101" />
<glyph unicode="&#x2010;" horiz-adv-x="770" d="M86 508v88q0 25 6 33t29 8h528q23 0 29 -8t6 -33v-88q0 -25 -6 -33t-29 -8h-528q-23 0 -29 8t-6 33z" />
<glyph unicode="&#x2011;" horiz-adv-x="770" d="M86 508v88q0 25 6 33t29 8h528q23 0 29 -8t6 -33v-88q0 -25 -6 -33t-29 -8h-528q-23 0 -29 8t-6 33z" />
<glyph unicode="&#x2012;" horiz-adv-x="770" d="M86 508v88q0 25 6 33t29 8h528q23 0 29 -8t6 -33v-88q0 -25 -6 -33t-29 -8h-528q-23 0 -29 8t-6 33z" />
<glyph unicode="&#x2013;" horiz-adv-x="1024" d="M0 520v70q0 25 6 33t29 8h954q23 0 29 -8.5t6 -32.5v-70q0 -25 -6 -33t-29 -8h-954q-23 0 -29 8.5t-6 32.5z" />
<glyph unicode="&#x2014;" horiz-adv-x="2048" d="M0 520v70q0 25 6 33t29 8h1978q23 0 29 -8.5t6 -32.5v-70q0 -25 -6 -33t-29 -8h-1978q-23 0 -29 8.5t-6 32.5z" />
<glyph unicode="&#x2018;" horiz-adv-x="499" d="M141 1047v38q0 41 15.5 82t52.5 111l88 164q14 27 25.5 34t35.5 7h52q25 0 24 -17q0 -4 -1 -8t-7 -18l-115 -264q39 -6 61.5 -37t22.5 -78v-17q0 -53 -34 -84.5t-93 -31.5t-93 31.5t-34 87.5z" />
<glyph unicode="&#x2019;" horiz-adv-x="499" d="M66 944q0 4 1 8t7 19l114 264q-39 6 -61.5 37t-22.5 78v16q0 53 34 85t93 32t93 -32t34 -87v-39q0 -41 -15 -82t-52 -110l-88 -164q-14 -27 -25.5 -34t-36.5 -7h-51q-25 0 -24 16z" />
<glyph unicode="&#x201a;" horiz-adv-x="499" d="M86 -293q0 4 1 8t7 19l115 264q-39 6 -61.5 37t-22.5 78v16q0 53 34 85t93 32t93 -32t34 -87v-39q0 -41 -15.5 -82t-52.5 -110l-88 -164q-14 -27 -25.5 -34t-35.5 -7h-51q-25 0 -25 16z" />
<glyph unicode="&#x201c;" horiz-adv-x="862" d="M141 1047v38q0 41 15.5 82t52.5 111l88 164q14 27 25.5 34t35.5 7h52q25 0 24 -17q0 -4 -1 -8t-7 -18l-115 -264q39 -6 61.5 -37t22.5 -78v-17q0 -53 -34 -84.5t-93 -31.5t-93 31.5t-34 87.5zM503 1047v38q0 41 15.5 82t52.5 111l88 164q14 27 25.5 34t35.5 7h52 q25 0 24 -17q0 -4 -1 -8t-7 -18l-115 -264q39 -6 61.5 -37t22.5 -78v-17q0 -53 -34 -84.5t-93 -31.5t-93 31.5t-34 87.5z" />
<glyph unicode="&#x201d;" horiz-adv-x="862" d="M66 944q0 4 1 8t7 19l114 264q-39 6 -61.5 37t-22.5 78v16q0 53 34 85t93 32t93 -32t34 -87v-39q0 -41 -15 -82t-52 -110l-88 -164q-14 -27 -25.5 -34t-36.5 -7h-51q-25 0 -24 16zM428 944q0 4 1 8t7 19l114 264q-39 6 -61.5 37t-22.5 78v16q0 53 34 85t93 32t93 -32 t34 -87v-39q0 -41 -15 -82t-52 -110l-88 -164q-14 -27 -25.5 -34t-36.5 -7h-51q-25 0 -24 16z" />
<glyph unicode="&#x201e;" horiz-adv-x="862" d="M86 -293q0 4 1 8t7 19l115 264q-39 6 -61.5 37t-22.5 78v16q0 53 34 85t93 32t93 -32t34 -87v-39q0 -41 -15.5 -82t-52.5 -110l-88 -164q-14 -27 -25.5 -34t-35.5 -7h-51q-25 0 -25 16zM448 -293q0 4 1 8t7 19l115 264q-39 6 -61.5 37t-22.5 78v16q0 53 34 85t93 32 t93 -32t34 -87v-39q0 -41 -15.5 -82t-52.5 -110l-88 -164q-14 -27 -25.5 -34t-35.5 -7h-51q-25 0 -25 16z" />
<glyph unicode="&#x2022;" horiz-adv-x="954" d="M203 537q0 57 21.5 107t58 87t87 58.5t107.5 21.5t107.5 -21.5t87.5 -58.5t58.5 -87t21.5 -107t-21.5 -107.5t-58.5 -87.5t-87 -58.5t-108 -21.5q-57 0 -107.5 21.5t-87 58.5t-58 87.5t-21.5 107.5z" />
<glyph unicode="&#x2026;" horiz-adv-x="2048" d="M213 88v41q0 53 34 85t93 32t93 -32t34 -85v-41q0 -53 -34 -85t-93 -32t-93 32t-34 85zM897 88v41q0 53 34 85t93 32t93 -32t34 -85v-41q0 -53 -34 -85t-93 -32t-93 32t-34 85zM1581 88v41q0 53 34 85t93 32t93 -32t34 -85v-41q0 -53 -34 -85t-93 -32t-93 32t-34 85z" />
<glyph unicode="&#x202f;" horiz-adv-x="366" />
<glyph unicode="&#x2039;" horiz-adv-x="563" d="M80 549v74q0 20 5 29.5t24 27.5l321 299q23 23 33 22q20 0 20 -28v-92q0 -25 -6 -35t-35 -37l-237 -223l237 -224q29 -27 35 -37t6 -34v-92q0 -29 -20 -29q-10 0 -33 23l-321 299q-18 20 -23.5 29t-5.5 28z" />
<glyph unicode="&#x203a;" horiz-adv-x="563" d="M80 199v92q0 25 6 35t35 36l237 224l-237 223q-29 27 -35 37t-6 35v92q0 29 20 28q10 0 33 -22l322 -299q20 -18 24 -27.5t4 -29.5v-74q0 -18 -4 -27.5t-24 -29.5l-322 -299q-23 -23 -33 -23q-20 0 -20 29z" />
<glyph unicode="&#x205f;" horiz-adv-x="458" />
<glyph unicode="&#x20ac;" d="M41 518v41q0 25 6 33t29 8h88v164h-88q-23 0 -29 8t-6 33v41q0 25 6 33t29 8h90q4 78 13 130t26 99q49 143 162.5 216t273.5 73q119 0 206 -33t140 -92q49 -53 74.5 -116.5t25.5 -147.5q0 -23 -9 -31t-36 -8h-75q-27 0 -36 6t-11 29q-18 252 -285 252 q-154 0 -225.5 -90.5t-81.5 -286.5h393q23 0 29 -8.5t6 -32.5v-41q0 -25 -6.5 -33t-28.5 -8h-395v-164h395q23 0 29 -8t6 -33v-41q0 -25 -6.5 -33t-28.5 -8h-393q10 -193 82.5 -279.5t224.5 -86.5q266 0 289 256q2 23 11 28.5t36 5.5h71q27 0 36 -8t9 -31 q0 -80 -28.5 -149.5t-75.5 -116.5q-66 -63 -150.5 -96t-205.5 -33q-156 0 -263.5 69.5t-160.5 205.5q-18 45 -26.5 99t-12.5 136h-88q-23 0 -29 8.5t-6 32.5z" />
<glyph unicode="&#x2122;" horiz-adv-x="1564" d="M74 1399v18q0 25 6 33t29 8h512q23 0 28.5 -8t5.5 -33v-18q0 -25 -6 -33t-28 -8h-199v-664q0 -23 -8 -29t-33 -6h-33q-25 0 -33 6.5t-8 28.5v664h-198q-23 0 -29 8t-6 33zM770 694v729q0 23 8 29t33 6h45q23 0 32 -6t19 -29l205 -428l205 428q10 23 19.5 29t31.5 6h45 q25 0 33 -6t8 -29v-729q0 -23 -8 -29t-33 -6h-29q-25 0 -33 6.5t-8 28.5v561l-165 -340q-8 -16 -16.5 -22t-26.5 -6h-45q-20 0 -28.5 6t-17.5 22l-163 340v-561q0 -23 -8.5 -29t-32.5 -6h-29q-25 0 -33 6.5t-8 28.5z" />
<glyph unicode="&#x25fc;" horiz-adv-x="1075" d="M0 0v1075h1075v-1075h-1075z" />
<glyph unicode="&#xfb01;" horiz-adv-x="1073" d="M55 979v53q0 25 6.5 33t28.5 8h131v92q0 141 82 217t234 76h73q23 0 29 -8t6 -33v-55q0 -25 -6 -33t-29 -8h-59q-92 0 -130 -37t-38 -127v-84h186q23 0 29 -8t6 -33v-53q0 -25 -6 -33t-29 -8h-186v-897q0 -25 -9 -33t-34 -8h-76q-25 0 -34 8t-9 33v897h-131q-23 0 -29 8 t-6 33zM750 1356v33q0 41 27.5 65.5t74.5 24.5q49 0 78 -24.5t29 -65.5v-33q0 -43 -29 -67.5t-78 -24.5q-47 0 -74.5 24.5t-27.5 67.5zM770 41v991q0 25 9.5 33t33.5 8h76q25 0 34 -8t9 -33v-991q0 -25 -9 -33t-34 -8h-76q-25 0 -34 8t-9 33z" />
<glyph unicode="&#xfb02;" horiz-adv-x="1073" d="M55 979v53q0 25 6.5 33t28.5 8h131v92q0 141 82 217t234 76h73q23 0 29 -8t6 -33v-55q0 -25 -6 -33t-29 -8h-59q-92 0 -130 -37t-38 -127v-84h186q23 0 29 -8t6 -33v-53q0 -25 -6 -33t-29 -8h-186v-897q0 -25 -9 -33t-34 -8h-76q-25 0 -34 8t-9 33v897h-131q-23 0 -29 8 t-6 33zM770 41v1376q0 25 9.5 33t33.5 8h76q25 0 34 -8t9 -33v-1376q0 -25 -9 -33t-34 -8h-76q-25 0 -34 8t-9 33z" />
<glyph unicode="&#xfb03;" horiz-adv-x="1732" d="M55 979v53q0 25 6.5 33t28.5 8h131v92q0 141 82 217t234 76h73q23 0 29 -8t6 -33v-55q0 -25 -6 -33t-29 -8h-59q-92 0 -130 -37t-38 -127v-84h186q23 0 29 -8t6 -33v-53q0 -25 -6 -33t-29 -8h-186v-897q0 -25 -9 -33t-34 -8h-76q-25 0 -34 8t-9 33v897h-131q-23 0 -29 8 t-6 33zM714 979v53q0 25 6.5 33t28.5 8h131v92q0 141 82 217t234 76h73q23 0 29 -8t6 -33v-55q0 -25 -6 -33t-29 -8h-59q-92 0 -130 -37t-38 -127v-84h186q23 0 29 -8t6 -33v-53q0 -25 -6 -33t-29 -8h-186v-897q0 -25 -9 -33t-34 -8h-76q-25 0 -34 8t-9 33v897h-131 q-23 0 -29 8t-6 33zM1409 1356v33q0 41 27.5 65.5t74.5 24.5q49 0 78 -24.5t29 -65.5v-33q0 -43 -29 -67.5t-78 -24.5q-47 0 -74.5 24.5t-27.5 67.5zM1429 41v991q0 25 9.5 33t33.5 8h76q25 0 34 -8t9 -33v-991q0 -25 -9 -33t-34 -8h-76q-25 0 -34 8t-9 33z" />
<glyph unicode="&#xfb04;" horiz-adv-x="1732" d="M55 979v53q0 25 6.5 33t28.5 8h131v92q0 141 82 217t234 76h73q23 0 29 -8t6 -33v-55q0 -25 -6 -33t-29 -8h-59q-92 0 -130 -37t-38 -127v-84h186q23 0 29 -8t6 -33v-53q0 -25 -6 -33t-29 -8h-186v-897q0 -25 -9 -33t-34 -8h-76q-25 0 -34 8t-9 33v897h-131q-23 0 -29 8 t-6 33zM714 979v53q0 25 6.5 33t28.5 8h131v92q0 141 82 217t234 76h73q23 0 29 -8t6 -33v-55q0 -25 -6 -33t-29 -8h-59q-92 0 -130 -37t-38 -127v-84h186q23 0 29 -8t6 -33v-53q0 -25 -6 -33t-29 -8h-186v-897q0 -25 -9 -33t-34 -8h-76q-25 0 -34 8t-9 33v897h-131 q-23 0 -29 8t-6 33zM1429 41v1376q0 25 9.5 33t33.5 8h76q25 0 34 -8t9 -33v-1376q0 -25 -9 -33t-34 -8h-76q-25 0 -34 8t-9 33z" />
</font>
</defs>
</svg>
