<?xml version="1.0" standalone="no"?>
<!DOCTYPE svg PUBLIC "-//W3C//DTD SVG 1.1//EN" "http://www.w3.org/Graphics/SVG/1.1/DTD/svg11.dtd" >
<svg xmlns="http://www.w3.org/2000/svg" xmlns:xlink="http://www.w3.org/1999/xlink" version="1.1">
<metadata></metadata>
<defs>
<font id="oscinelight" horiz-adv-x="1167" >
<font-face units-per-em="2048" ascent="1458" descent="-590" />
<missing-glyph horiz-adv-x="438" />
<glyph unicode="&#xd;" horiz-adv-x="438" />
<glyph horiz-adv-x="0" />
<glyph horiz-adv-x="0" />
<glyph unicode=" "  horiz-adv-x="438" />
<glyph unicode="&#x09;" horiz-adv-x="438" />
<glyph unicode="&#xa0;" horiz-adv-x="438" />
<glyph unicode="!" horiz-adv-x="442" d="M133 68v26q0 35 23.5 56.5t64.5 21.5t64.5 -21.5t23.5 -56.5v-26q0 -35 -23.5 -56.5t-64.5 -21.5t-64.5 21.5t-23.5 56.5zM166 1430q0 29 29 28h51q29 0 28 -28l-12 -1063q0 -29 -29 -29h-26q-29 0 -29 29z" />
<glyph unicode="&#x22;" horiz-adv-x="555" d="M82 1430q0 29 29 28h43q29 0 28 -28l-10 -474q0 -29 -29 -28h-22q-29 0 -29 28zM373 1430q0 29 29 28h43q29 0 28 -28l-10 -474q0 -29 -29 -28h-22q-29 0 -29 28z" />
<glyph unicode="#" d="M129 436v25q0 29 29 28h172v396h-172q-29 0 -29 28v25q0 29 29 29h172v272q0 29 28 29h29q29 0 29 -29v-272h334v272q0 29 28 29h29q29 0 29 -29v-272h172q29 0 28 -29v-25q0 -29 -28 -28h-172v-396h172q29 0 28 -28v-25q0 -29 -28 -28h-172v-273q0 -29 -29 -29h-29 q-29 0 -28 29v273h-334v-273q0 -29 -29 -29h-29q-29 0 -28 29v273h-172q-29 0 -29 28zM416 489h334v396h-334v-396z" />
<glyph unicode="$" d="M147 289q0 29 29 28h37q18 0 23.5 -4t9.5 -24q29 -119 95.5 -172.5t197.5 -57.5v617l-66 20q-162 49 -233.5 131t-71.5 220q0 154 96 245.5t275 106.5v145q0 29 28 29h35q29 0 29 -29v-143q227 -10 315 -144q25 -39 41.5 -88t16.5 -84q0 -18 -6.5 -24t-22.5 -6h-33 q-18 0 -23.5 4t-9.5 24q-29 119 -93 170.5t-185 57.5v-568l82 -24q158 -49 231.5 -137t73.5 -230q0 -170 -99.5 -267t-287.5 -112v-163q0 -29 -29 -29h-35q-29 0 -28 29v161q-244 8 -332 146q-25 37 -42.5 87t-17.5 85zM266 1051q0 -55 13.5 -96.5t44 -73t80 -57 t122.5 -48.5l13 -4v539q-131 -12 -202 -79.5t-71 -180.5zM631 61q141 12 215 85t74 202q0 115 -59.5 181.5t-201.5 109.5l-28 8v-586z" />
<glyph unicode="%" horiz-adv-x="1613" d="M82 893v163q0 166 76 252t223 86q303 0 303 -338v-163q0 -166 -76.5 -252t-226.5 -86q-299 0 -299 338zM170 909q0 -143 51.5 -210t161.5 -67q111 0 162 67t51 210v129q0 143 -51 210.5t-162 67.5t-162 -66.5t-51 -211.5v-129zM408 16q0 8 10 25l690 1311q8 16 14.5 20 t16.5 4h39q23 0 22 -16q0 -4 -10 -25l-690 -1310q-8 -16 -14.5 -20.5t-16.5 -4.5h-39q-23 0 -22 16zM929 322v163q0 166 76 252t223 86q303 0 303 -338v-163q0 -166 -76.5 -252t-226.5 -86q-299 0 -299 338zM1017 338q0 -143 51.5 -210t161.5 -67q111 0 162 67t51 210v129 q0 143 -51 210.5t-162 67.5t-162 -66.5t-51 -211.5v-129z" />
<glyph unicode="&#x26;" horiz-adv-x="1247" d="M113 385q0 147 63.5 249.5t179.5 139.5q-100 47 -147 127t-47 203q0 190 105.5 289.5t310.5 99.5q117 0 200.5 -35t126.5 -100q23 -37 39.5 -84t16.5 -82q0 -29 -29 -29h-37q-16 0 -22.5 4t-10.5 25q-29 115 -94.5 163t-192.5 48q-311 0 -311 -295q0 -293 305 -293h66 q29 0 29 -29v-32q0 -29 -29 -29h-82q-166 0 -252 -85t-86 -247q0 -164 91 -248t269 -84q365 0 365 359v366q0 29 29 29h209q29 0 28 -29v-32q0 -29 -28 -29h-136v-305q0 -221 -118.5 -335t-348.5 -114q-225 0 -343.5 106.5t-118.5 307.5z" />
<glyph unicode="'" horiz-adv-x="264" d="M82 1430q0 29 29 28h43q29 0 28 -28l-10 -474q0 -29 -29 -28h-22q-29 0 -29 28z" />
<glyph unicode="(" horiz-adv-x="593" d="M160 174v760q0 375 233 491q66 33 131 33q29 0 29 -28v-23q0 -16 -5 -20.5t-24 -8.5q-121 -23 -186 -112q-84 -113 -84 -332v-760q0 -219 84 -332q66 -90 186 -112q18 -4 23.5 -8.5t5.5 -20.5v-23q0 -29 -29 -28q-66 0 -131 33q-233 117 -233 491z" />
<glyph unicode=")" horiz-adv-x="593" d="M41 -299q0 16 5 20.5t24 8.5q121 23 186 112q84 113 84 332v760q0 219 -84 332q-66 90 -186 112q-18 4 -23.5 8.5t-5.5 20.5v23q0 29 29 28q66 0 131 -33q233 -117 233 -491v-760q0 -375 -233 -491q-66 -33 -131 -33q-29 0 -29 28v23z" />
<glyph unicode="*" horiz-adv-x="671" d="M41 1188q0 4 2 11t4 13l10 31q6 23 21 23q4 0 20 -6l203 -80l-12 198q-2 14 -3 30.5t-1 27.5q0 23 28 22h45q29 0 29 -22q0 -10 -1 -26.5t-3 -31.5l-12 -198l202 80q14 6 21 6q14 0 20 -23l11 -31q2 -6 4 -13t2 -11q0 -16 -23 -21l-219 -55l143 -176q18 -20 19 -31 q0 -10 -19 -22l-28 -21q-14 -10 -23 -10q-12 0 -20 14l-125 199l-125 -199q-8 -14 -21 -14q-8 0 -22 10l-29 21q-18 12 -18 22t18 31l142 176l-218 55q-23 4 -22 21z" />
<glyph unicode="+" d="M176 682v25q0 29 29 28h336v357q0 29 28 28h29q29 0 29 -28v-357h336q29 0 28 -28v-25q0 -29 -28 -29h-336v-368q0 -29 -29 -29h-29q-29 0 -28 29v368h-336q-29 0 -29 29z" />
<glyph unicode="," horiz-adv-x="389" d="M74 -268q0 6 8 24l102 246q-59 10 -59 74v22q0 35 22.5 54.5t63.5 19.5q88 0 88 -84v-16q0 -39 -45 -135l-96 -199q-8 -12 -12.5 -15.5t-16.5 -3.5h-37q-18 0 -18 13z" />
<glyph unicode="-" horiz-adv-x="712" d="M72 537v32q0 29 28 29h512q29 0 29 -29v-32q0 -29 -29 -29h-512q-29 0 -28 29z" />
<glyph unicode="." horiz-adv-x="389" d="M106 68v26q0 35 24 56.5t65 21.5t64.5 -21.5t23.5 -56.5v-26q0 -35 -23.5 -56.5t-64.5 -21.5t-65 21.5t-24 56.5z" />
<glyph unicode="/" horiz-adv-x="661" d="M43 18q0 8 8 31l471 1385q8 25 31 24h45q20 0 20 -18q0 -8 -8 -31l-471 -1384q-8 -25 -30 -25h-46q-20 0 -20 18z" />
<glyph unicode="0" horiz-adv-x="1110" d="M113 496v385q0 262 111.5 393t330.5 131q442 0 442 -524v-385q0 -525 -442 -525t-442 525zM217 512q0 -238 80 -345.5t258 -107.5q176 0 257 108.5t81 344.5v350q0 236 -81 344.5t-257 108.5q-178 0 -258 -107.5t-80 -345.5v-350z" />
<glyph unicode="1" horiz-adv-x="616" d="M20 1315v33q0 29 29 28h354q29 0 29 -28v-1319q0 -29 -29 -29h-45q-29 0 -28 29v1257h-281q-29 0 -29 29z" />
<glyph unicode="2" horiz-adv-x="1019" d="M76 29v63q0 86 16.5 155.5t53 129t97 111t148.5 104.5l174 102q68 39 114 78t74.5 79t42 85t13.5 98v13q0 129 -72.5 198.5t-208.5 69.5q-147 0 -227 -56.5t-102 -175.5q-4 -20 -9.5 -24t-23.5 -4h-35q-16 0 -22.5 6t-6.5 24q0 33 16.5 80t39.5 80q51 78 143 119t217 41 q190 0 291.5 -91t101.5 -261v-29q0 -127 -67.5 -221t-220.5 -187l-179 -106q-74 -43 -126 -87t-83.5 -94t-46 -108.5t-14.5 -130.5h705q29 0 28 -29v-32q0 -29 -28 -29h-775q-29 0 -28 29z" />
<glyph unicode="3" horiz-adv-x="1030" d="M72 291q0 18 6 24.5t22 6.5h35q18 0 23.5 -4.5t9.5 -24.5q49 -231 328 -232q162 0 245.5 78t83.5 228v12q0 297 -293 297h-98q-31 0 -31 22v45q0 23 31 23h98q133 0 203 69.5t70 204.5v13q0 262 -301 262q-141 0 -223 -59.5t-99 -172.5q-4 -20 -9 -24t-23 -4h-35 q-16 0 -22.5 6t-6.5 24q0 33 15.5 79t37.5 79q109 162 371 162q193 0 295 -88t102 -254v-29q0 -231 -200 -309q221 -78 221 -338v-29q0 -186 -114 -286.5t-322 -100.5q-129 0 -218.5 38t-148.5 118q-23 31 -38 78t-15 86z" />
<glyph unicode="4" horiz-adv-x="995" d="M51 358v45q0 14 2 22.5t13 23.5l585 907q12 20 35 20h49q29 0 29 -28v-928h131q29 0 29 -29v-33q0 -29 -29 -28h-131v-301q0 -29 -29 -29h-35q-29 0 -28 29v301h-592q-29 0 -29 28zM145 420h527v815z" />
<glyph unicode="5" horiz-adv-x="1011" d="M82 281q0 18 6 24t23 6h36q18 0 23.5 -4t9.5 -24q25 -121 96.5 -171.5t217.5 -50.5q303 0 303 336v35q0 182 -67.5 266t-215.5 84q-90 0 -153.5 -22.5t-131.5 -75.5q-16 -12 -24 -15t-29 -3h-24q-31 0 -31 22v666q0 23 31 22h679q31 0 31 -22v-45q0 -23 -31 -23h-618 v-520q115 106 305 106q381 0 381 -426v-63q0 -199 -105.5 -305.5t-301.5 -106.5q-256 0 -359 152q-23 29 -37 76t-14 82z" />
<glyph unicode="6" horiz-adv-x="1083" d="M113 408v528q0 227 113.5 348t326.5 121q129 0 211 -34t137 -107q23 -29 37 -71t14 -77q0 -18 -6 -24.5t-22 -6.5h-37q-18 0 -23.5 4.5t-9.5 24.5q-25 109 -95.5 155t-207.5 46q-338 0 -338 -393v-215q96 170 354 170q205 0 309.5 -106.5t104.5 -315.5v-62 q0 -209 -109.5 -315.5t-324.5 -106.5q-227 0 -330.5 107.5t-103.5 329.5zM211 408q0 -180 80 -263.5t256 -83.5q174 0 253 82t79 265v32q0 178 -77 262t-241 84q-172 0 -261 -88t-89 -258v-32z" />
<glyph unicode="7" horiz-adv-x="952" d="M31 1315v33q0 29 28 28h772q29 0 29 -28v-54q0 -80 -9 -143.5t-29.5 -118.5t-56.5 -108.5t-87 -112.5l-74 -84q-49 -55 -84 -111.5t-56.5 -118t-31.5 -132t-10 -152.5v-184q0 -29 -29 -29h-45q-29 0 -29 29v182q0 90 11.5 165t35 142.5t61.5 130t93 125.5l74 86 q49 57 82 105.5t52.5 96.5t26.5 101.5t7 122.5h-703q-29 0 -28 29z" />
<glyph unicode="8" horiz-adv-x="1091" d="M82 332v47q0 121 63.5 205t186.5 121q-213 78 -213 309v45q0 162 110.5 254t307.5 92q199 0 308 -90t109 -256v-45q0 -111 -55 -191t-160 -116q123 -37 186.5 -121t63.5 -207v-47q0 -172 -118.5 -266.5t-335.5 -94.5q-219 0 -336 93.5t-117 267.5zM184 346 q0 -285 351 -285q352 0 352 285v27q0 287 -352 286q-350 0 -351 -286v-27zM221 1020q0 -270 316 -270q315 0 315 270v24q0 271 -315 271t-316 -271v-24z" />
<glyph unicode="9" horiz-adv-x="1083" d="M82 922v61q0 209 109.5 315.5t324.5 106.5q227 0 330.5 -107.5t103.5 -328.5v-529q0 -227 -113.5 -348t-326.5 -121q-129 0 -211 34t-137 108q-23 29 -37 70.5t-14 76.5q0 18 6 24.5t22 6.5h37q18 0 23.5 -4t9.5 -25q25 -109 95.5 -155t207.5 -46q338 0 338 394v213 q-100 -168 -354 -168q-205 0 -309.5 106.5t-104.5 315.5zM184 936q0 -178 77 -262t241 -84q172 0 261 88t89 258v33q0 180 -80 263t-256 83q-174 0 -253 -82t-79 -264v-33z" />
<glyph unicode=":" horiz-adv-x="389" d="M106 68v26q0 35 24 56.5t65 21.5t64.5 -21.5t23.5 -56.5v-26q0 -35 -23.5 -56.5t-64.5 -21.5t-65 21.5t-24 56.5zM106 959v26q0 35 24 56.5t65 21.5t64.5 -21.5t23.5 -56.5v-26q0 -35 -23.5 -56.5t-64.5 -21.5t-65 21.5t-24 56.5z" />
<glyph unicode=";" horiz-adv-x="389" d="M74 -268q0 6 8 24l102 246q-59 10 -59 74v22q0 35 22.5 54.5t63.5 19.5q88 0 88 -84v-16q0 -39 -45 -135l-96 -199q-8 -12 -12.5 -15.5t-16.5 -3.5h-37q-18 0 -18 13zM106 959v26q0 35 24 56.5t65 21.5t64.5 -21.5t23.5 -56.5v-26q0 -35 -23.5 -56.5t-64.5 -21.5 t-65 21.5t-24 56.5z" />
<glyph unicode="&#x3c;" d="M197 662v53q0 12 4 18t20 12l694 316q12 6 19 6q16 0 16 -23v-40q0 -12 -4 -18.5t-20 -12.5l-625 -283l625 -282q16 -6 20 -12.5t4 -18.5v-45q0 -23 -16 -23q-6 0 -19 6l-694 316q-16 6 -20 12t-4 19z" />
<glyph unicode="=" d="M197 461v24q0 29 28 29h717q29 0 29 -29v-24q0 -29 -29 -29h-717q-29 0 -28 29zM197 891v24q0 29 28 29h717q29 0 29 -29v-24q0 -29 -29 -29h-717q-29 0 -28 29z" />
<glyph unicode="&#x3e;" d="M217 332v41q0 14 5 19t20 11l624 283l-624 283q-14 6 -19.5 11t-5.5 19v45q0 23 16 23q6 0 19 -6l694 -316q14 -6 19.5 -11t5.5 -19v-53q0 -14 -5 -19.5t-20 -11.5l-694 -316q-12 -6 -19 -6q-16 0 -16 23z" />
<glyph unicode="?" horiz-adv-x="966" d="M61 1163q0 33 16.5 80t43.5 86q49 76 139 115t213 39q391 0 391 -353v-38q0 -94 -46 -179.5t-134 -146.5l-57 -41q-35 -25 -57.5 -48.5t-37 -51t-19.5 -62.5t-5 -84v-112q0 -29 -29 -29h-33q-29 0 -28 29v98q0 70 8 120t26.5 88t49 68.5t78.5 63.5l57 39q61 43 93 112.5 t32 147.5v29q0 262 -289 262q-143 0 -216 -54.5t-99 -179.5q-4 -20 -9.5 -24t-23.5 -4h-35q-16 0 -22.5 6t-6.5 24zM377 68v26q0 35 23.5 56.5t64.5 21.5t64.5 -21.5t23.5 -56.5v-26q0 -35 -23.5 -56.5t-64.5 -21.5t-64.5 21.5t-23.5 56.5z" />
<glyph unicode="@" horiz-adv-x="1339" d="M113 270v195q0 303 144 459.5t425 156.5h104q428 0 428 -415v-277q0 -178 -88 -261t-278 -83h-14q-188 0 -272.5 67.5t-84.5 221.5q0 166 92 242.5t295 76.5q66 0 131.5 -6t122.5 -16v22q0 178 -78.5 260t-253.5 82h-98q-236 0 -357.5 -134t-121.5 -394v-197 q0 -279 136 -406.5t429 -127.5h359q29 0 28 -29v-29q0 -29 -28 -28h-363q-340 0 -498.5 149.5t-158.5 470.5zM573 338q0 -115 59.5 -163t198.5 -48h15q145 0 208.5 59.5t63.5 196.5v166q-68 10 -135.5 16t-128.5 6q-152 0 -216.5 -54t-64.5 -179z" />
<glyph unicode="A" horiz-adv-x="1181" d="M43 16q0 6 6 23l475 1395q8 25 31 24h70q23 0 30 -24l478 -1395q6 -16 6 -23q0 -16 -23 -16h-55q-23 0 -31 25l-137 403h-610l-136 -403q-8 -25 -30 -25h-51q-23 0 -23 16zM313 518h549l-276 807z" />
<glyph unicode="B" horiz-adv-x="1179" d="M162 29v1405q0 25 28 24h467q190 0 288.5 -88t98.5 -262v-31q0 -113 -52 -191.5t-146 -113.5q219 -76 219 -348v-33q0 -190 -102.5 -290.5t-294.5 -100.5h-478q-29 0 -28 29zM264 90h393q305 0 306 303v29q0 305 -306 305h-393v-637zM264 817h383q295 0 295 262v27 q0 262 -295 262h-383v-551z" />
<glyph unicode="C" horiz-adv-x="1173" d="M127 526v406q0 276 125 417.5t366 141.5q305 0 418 -223q16 -31 24.5 -73t8.5 -85q0 -29 -29 -29h-39q-27 0 -28 23q-16 147 -105.5 222t-249.5 75q-199 0 -293 -119t-94 -364v-377q0 -248 92.5 -366t286.5 -118q162 0 254.5 76t108.5 221q2 23 28 23h39q29 0 29 -29 q0 -37 -11 -80t-28 -78q-51 -109 -160.5 -166t-259.5 -57q-240 0 -361.5 140.5t-121.5 418.5z" />
<glyph unicode="D" horiz-adv-x="1220" d="M162 27v1392q0 39 28 39h396q508 0 508 -536v-385q0 -268 -128 -402.5t-380 -134.5h-398q-27 0 -26 27zM266 90h320q211 0 307 110.5t96 350.5v356q0 240 -96 350.5t-307 110.5h-320v-1278z" />
<glyph unicode="E" horiz-adv-x="1095" d="M162 27v1403q0 29 28 28h738q29 0 28 -28v-33q0 -29 -28 -29h-664v-573h619q29 0 28 -29v-33q0 -29 -28 -28h-619v-615h678q29 0 29 -29v-32q0 -29 -29 -29h-754q-27 0 -26 27z" />
<glyph unicode="F" horiz-adv-x="1044" d="M162 29v1401q0 29 28 28h721q29 0 29 -28v-33q0 -29 -29 -29h-647v-594h598q29 0 29 -29v-32q0 -29 -29 -29h-598v-655q0 -29 -28 -29h-46q-29 0 -28 29z" />
<glyph unicode="G" horiz-adv-x="1224" d="M127 526v406q0 274 127 416.5t371 142.5q317 0 432 -223q16 -31 24.5 -73t8.5 -85q0 -29 -29 -29h-39q-27 0 -29 23q-16 147 -108 222t-256 75q-397 0 -398 -483v-377q0 -248 92.5 -366t286.5 -118q379 0 379 408v137h-260q-29 0 -29 29v33q0 29 29 28h332q29 0 29 -28 v-205q0 -242 -121 -367t-357 -125q-242 0 -363.5 141.5t-121.5 417.5z" />
<glyph unicode="H" horiz-adv-x="1277" d="M162 29v1401q0 29 28 28h46q29 0 28 -28v-613h750v613q0 29 28 28h45q29 0 29 -28v-1401q0 -29 -29 -29h-45q-29 0 -28 29v698h-750v-698q0 -29 -28 -29h-46q-29 0 -28 29z" />
<glyph unicode="I" horiz-adv-x="425" d="M162 29v1401q0 29 28 28h46q29 0 28 -28v-1401q0 -29 -28 -29h-46q-29 0 -28 29z" />
<glyph unicode="J" horiz-adv-x="1073" d="M74 311q0 20 6 26.5t22 6.5h39q27 1 29 -22q16 -139 97 -202t214 -63q168 0 248 98.5t80 303.5v971q0 29 29 28h45q29 0 28 -28v-986q0 -233 -109.5 -355t-318.5 -122q-139 0 -236 52.5t-138 148.5q-16 37 -25.5 75t-9.5 68z" />
<glyph unicode="K" horiz-adv-x="1148" d="M162 29v1401q0 29 28 28h41q29 0 29 -28v-842l690 852q16 18 37 18h51q23 0 23 -18q0 -8 -14 -25l-451 -553l496 -815q12 -20 12 -31q0 -16 -21 -16h-55q-16 0 -22.5 4t-14.5 14l-459 768l-272 -333v-424q0 -29 -29 -29h-41q-29 0 -28 29z" />
<glyph unicode="L" horiz-adv-x="989" d="M162 27v1403q0 29 28 28h46q29 0 28 -28v-1340h633q29 0 29 -29v-32q0 -29 -29 -29h-709q-27 0 -26 27z" />
<glyph unicode="M" horiz-adv-x="1439" d="M162 29v1401q0 29 28 28h58q16 0 23.5 -5t13.5 -17l436 -889l438 889q10 23 37 22h53q29 0 29 -28v-1401q0 -29 -29 -29h-37q-29 0 -28 29v1259l-410 -825q-8 -23 -37 -23h-37q-29 0 -36 23l-408 825v-1259q0 -29 -29 -29h-37q-29 0 -28 29z" />
<glyph unicode="N" horiz-adv-x="1275" d="M162 29v1401q0 29 28 28h50q25 0 34 -18l746 -1276v1266q0 29 29 28h36q29 0 29 -28v-1401q0 -29 -29 -29h-49q-25 0 -35 18l-745 1274v-1263q0 -29 -29 -29h-37q-29 0 -28 29z" />
<glyph unicode="O" horiz-adv-x="1226" d="M127 526v406q0 279 121.5 419t363.5 140q487 0 488 -559v-406q0 -279 -123 -419t-365 -140q-485 0 -485 559zM231 541q0 -252 91.5 -368t289.5 -116q199 0 291 116t92 368v377q0 252 -92 367.5t-291 115.5t-290 -116t-91 -367v-377z" />
<glyph unicode="P" horiz-adv-x="1110" d="M162 29v1401q0 29 28 28h398q438 0 438 -411v-35q0 -205 -110.5 -309.5t-327.5 -104.5h-324v-569q0 -29 -28 -29h-46q-29 0 -28 29zM264 688h314q180 0 263 77t83 247v35q0 168 -82 244.5t-264 76.5h-314v-680z" />
<glyph unicode="Q" horiz-adv-x="1247" d="M127 547v397q0 272 121.5 409.5t363.5 137.5q487 0 488 -547v-397q0 -342 -209 -457h274q29 0 29 -29v-32q0 -29 -29 -29h-553q-485 0 -485 547zM231 561q0 -246 91.5 -358.5t289.5 -112.5q199 0 291 112.5t92 358.5v369q0 246 -92 358.5t-291 112.5t-290 -112.5 t-91 -358.5v-369z" />
<glyph unicode="R" horiz-adv-x="1159" d="M162 29v1401q0 29 28 28h416q428 0 428 -391v-33q0 -334 -315 -381l354 -610q10 -16 10 -25q0 -18 -20 -18h-59q-27 0 -37 18l-355 623h-348v-612q0 -29 -28 -29h-46q-29 0 -28 29zM264 731h332q176 0 256 73t80 230v33q0 158 -80 229.5t-256 71.5h-332v-637z" />
<glyph unicode="S" horiz-adv-x="1097" d="M104 289q0 29 29 28h37q16 0 22.5 -4t10.5 -24q16 -63 41.5 -107.5t65.5 -72t96.5 -40t132.5 -12.5q170 0 261 81t91 233q0 123 -62.5 195.5t-199.5 113.5l-191 57q-162 49 -237.5 135t-75.5 228v8q0 180 117.5 281.5t324.5 101.5q125 0 215 -38t138 -110q25 -37 42 -87 t17 -85q0 -18 -6 -24t-23 -6h-37q-18 0 -23 4t-9 24q-31 125 -102.5 178.5t-211.5 53.5q-166 0 -253 -75t-87 -218q0 -113 58.5 -177.5t203.5 -107.5l191 -55q154 -45 233.5 -141.5t79.5 -247.5v-8q0 -193 -120.5 -298.5t-337.5 -105.5q-262 0 -369 150q-27 37 -44.5 87 t-17.5 85z" />
<glyph unicode="T" horiz-adv-x="1110" d="M63 1397v33q0 29 29 28h926q29 0 29 -28v-33q0 -29 -29 -29h-412v-1339q0 -29 -28 -29h-46q-29 0 -28 29v1339h-412q-29 0 -29 29z" />
<glyph unicode="U" horiz-adv-x="1228" d="M150 465v965q0 29 28 28h45q29 0 29 -28v-969q0 -199 88 -301.5t258 -102.5h33q170 0 258 102.5t88 301.5v969q0 29 29 28h45q29 0 28 -28v-965q0 -244 -114.5 -371t-337.5 -127h-25q-453 0 -452 498z" />
<glyph unicode="V" horiz-adv-x="1118" d="M43 1442q0 16 20 16h58q23 0 31 -24l409 -1295l412 1295q8 25 31 24h51q20 0 20 -16q0 -4 -2 -12.5t-6 -18.5l-442 -1386q-8 -25 -31 -25h-70q-23 0 -30 25l-443 1386q-4 10 -6 18.5t-2 12.5z" />
<glyph unicode="W" horiz-adv-x="1558" d="M53 1442q0 16 23 16h53q25 0 31 -24l268 -1303l291 1251q6 25 31 25h63q25 0 31 -25l289 -1251l270 1303q6 25 31 24h49q23 0 22 -16q0 -6 -6 -31l-299 -1386q-6 -25 -31 -25h-73q-25 0 -31 25l-287 1230l-284 -1230q-6 -25 -31 -25h-74q-25 0 -31 25l-299 1386 q-6 25 -6 31z" />
<glyph unicode="X" horiz-adv-x="1077" d="M41 16q0 6 10 25l426 721l-385 655q-10 20 -10 25q0 16 22 16h48q16 0 24 -4t19 -20l346 -592l346 592q10 16 18 20t25 4h43q23 0 22 -16q0 -4 -10 -25l-385 -655l426 -721q10 -20 10 -25q0 -16 -22 -16h-49q-16 0 -24.5 4t-18.5 21l-385 657l-385 -657 q-10 -16 -18.5 -20.5t-24.5 -4.5h-46q-23 0 -22 16z" />
<glyph unicode="Y" horiz-adv-x="1097" d="M43 1442q0 16 20 16h62q12 0 17 -4t14 -20l395 -777l395 777q8 16 14.5 20t16.5 4h57q20 0 21 -16q0 -4 -2 -10.5t-13 -24.5l-440 -860v-518q0 -29 -29 -29h-45q-29 0 -28 29v516l-441 862q-10 18 -12 24.5t-2 10.5z" />
<glyph unicode="Z" horiz-adv-x="1116" d="M104 29v37q0 14 2.5 20t12.5 23l766 1259h-723q-29 0 -29 29v33q0 29 29 28h809q29 0 28 -28v-37q0 -12 -2 -19.5t-12 -23.5l-766 -1260h764q29 0 29 -29v-32q0 -29 -29 -29h-850q-29 0 -29 29z" />
<glyph unicode="[" horiz-adv-x="579" d="M160 -322v1752q0 29 28 28h322q29 0 29 -28v-23q0 -29 -29 -29h-256v-1648h256q29 0 29 -29v-23q0 -29 -29 -28h-322q-29 0 -28 28z" />
<glyph unicode="\" horiz-adv-x="661" d="M43 1440q0 18 20 18h46q23 0 30 -24l471 -1385q8 -23 8 -31q0 -18 -20 -18h-45q-23 0 -31 25l-471 1384q-8 23 -8 31z" />
<glyph unicode="]" horiz-adv-x="579" d="M41 -299q0 29 29 29h256v1648h-256q-29 0 -29 29v23q0 29 29 28h321q29 0 29 -28v-1752q0 -29 -29 -28h-321q-29 0 -29 28v23z" />
<glyph unicode="^" d="M168 428q0 6 8 23l346 718q10 23 33 23h55q14 0 20.5 -5t12.5 -18l348 -718q8 -16 8 -23q0 -12 -16 -12h-61q-12 0 -23 20l-317 658l-316 -658q-8 -20 -22 -20h-60q-16 0 -16 12z" />
<glyph unicode="_" horiz-adv-x="1024" d="M0 -217q0 29 29 29h968q29 0 29 -29v-25q0 -29 -29 -28h-968q-29 0 -29 28v25z" />
<glyph unicode="`" horiz-adv-x="1024" d="M379 1479q0 16 21 16h55q25 0 37 -18l147 -234q6 -10 7 -18q0 -16 -19 -17h-35q-25 0 -37 19l-167 233q-8 14 -9 19z" />
<glyph unicode="a" horiz-adv-x="999" d="M92 297q0 174 100.5 253t317.5 79q59 0 131 -7.5t135 -17.5v164q0 117 -63.5 170t-202.5 53q-57 0 -98 -7t-72 -24.5t-55.5 -47t-46.5 -74.5q-8 -16 -14.5 -20.5t-18.5 -4.5h-37q-29 0 -29 25q0 29 22.5 70.5t51.5 70.5q55 53 125 77.5t168 24.5q371 0 371 -315v-418 q0 -197 -91.5 -282.5t-298.5 -85.5h-16q-201 0 -290 74.5t-89 242.5zM193 301q0 -125 64.5 -180t211.5 -55h16q160 0 225.5 62t65.5 214v176q-76 12 -147.5 18.5t-126.5 6.5q-166 0 -237.5 -56.5t-71.5 -185.5z" />
<glyph unicode="b" horiz-adv-x="1093" d="M141 434v996q0 29 29 28h43q29 0 29 -28v-519q35 84 118.5 127t208.5 43q412 0 412 -477v-178q0 -223 -108.5 -339t-313.5 -116t-311.5 118t-106.5 345zM242 436q0 -379 319 -379q317 0 318 379v176q0 379 -318 379q-319 0 -319 -379v-176z" />
<glyph unicode="c" horiz-adv-x="1007" d="M113 426v201q0 217 106.5 335.5t304.5 118.5q90 0 168 -28.5t125 -77.5q35 -39 55.5 -87t20.5 -95q0 -29 -29 -29h-37q-18 0 -23 4t-9 25q-51 202 -269 202h-2q-309 0 -309 -381v-176q0 -188 76.5 -284.5t228.5 -96.5q113 0 184.5 52.5t92.5 150.5q4 20 9 24.5t23 4.5h37 q29 0 29 -27q0 -45 -22.5 -96t-57.5 -86q-53 -53 -130 -81t-171 -28q-199 0 -300 116t-101 339z" />
<glyph unicode="d" horiz-adv-x="1093" d="M113 426v178q0 236 106 356.5t311 120.5q123 0 205 -43t117 -127v519q0 29 29 28h43q29 0 28 -28v-996q0 -225 -109.5 -344t-314.5 -119t-310 116t-105 339zM215 436q0 -379 317 -379q319 0 320 379v176q0 379 -320 379q-317 0 -317 -379v-176z" />
<glyph unicode="e" horiz-adv-x="1042" d="M113 426v180q0 231 108.5 353t313.5 122q195 0 295 -113.5t100 -336.5v-101q0 -29 -29 -28h-688v-64q0 -381 317 -381q109 0 173.5 39t105.5 127q8 16 14 20.5t19 4.5h37q29 0 28 -25q0 -27 -23.5 -70.5t-54.5 -74.5q-49 -51 -127.5 -79t-177.5 -28q-203 0 -307 116 t-104 339zM213 586h621v41q-1 370 -302 370q-319 0 -319 -399v-12z" />
<glyph unicode="f" horiz-adv-x="585" d="M20 995v29q0 29 29 29h158v121q0 284 283 284h2h63q29 0 29 -28v-29q0 -29 -29 -29h-61q-100 0 -143.5 -46t-43.5 -155v-118h209q29 0 29 -29v-29q0 -29 -29 -28h-209v-938q0 -29 -28 -29h-43q-29 0 -29 29v938h-158q-29 0 -29 28z" />
<glyph unicode="g" horiz-adv-x="1093" d="M113 461v174q0 217 108.5 331.5t313.5 114.5t311 -113.5t106 -334.5v-617q0 -395 -428 -395q-92 0 -168.5 20.5t-119.5 57.5q-35 31 -56.5 68.5t-21.5 70.5q0 29 28 29h37q25 0 33 -25q45 -135 270 -135q170 0 248 74t78 235v146q-35 -84 -119 -127t-209 -43 q-412 0 -411 469zM215 453q0 -371 317 -371q319 0 320 371v172q0 370 -318 370h-2q-317 0 -317 -370v-172z" />
<glyph unicode="h" horiz-adv-x="1073" d="M147 29v1401q0 29 29 28h43q29 0 29 -28v-523q37 80 125 127t209 47q160 0 255 -89t95 -279v-684q0 -29 -29 -29h-43q-29 0 -29 29v667q0 160 -68.5 227.5t-193.5 67.5q-154 0 -237.5 -90t-83.5 -256v-616q0 -29 -29 -29h-43q-29 0 -29 29z" />
<glyph unicode="i" horiz-adv-x="395" d="M125 1341v25q0 29 20.5 47.5t55.5 18.5t55 -18.5t20 -47.5v-25q0 -29 -20 -47t-55 -18t-55.5 18.5t-20.5 46.5zM147 29v995q0 29 29 29h43q29 0 29 -29v-995q0 -29 -29 -29h-43q-29 0 -29 29z" />
<glyph unicode="j" horiz-adv-x="395" d="M-123 -293q0 29 29 29h92q78 0 113.5 42t35.5 136v1110q0 29 29 29h43q29 0 29 -29v-1100q0 -274 -250 -274h-92q-29 0 -29 28v29zM125 1341v25q0 29 20.5 47.5t55.5 18.5t55 -18.5t20 -47.5v-25q0 -29 -20 -47t-55 -18t-55.5 18.5t-20.5 46.5z" />
<glyph unicode="k" horiz-adv-x="1021" d="M147 29v1401q0 29 29 28h39q29 0 29 -28v-943l542 547q12 12 19.5 15.5t17.5 3.5h62q20 0 20 -15q0 -10 -10 -20l-352 -350l428 -629q8 -10 8 -21q0 -18 -21 -18h-53q-16 0 -22 4t-15 14l-393 582l-231 -231v-340q0 -29 -29 -29h-39q-29 0 -29 29z" />
<glyph unicode="l" horiz-adv-x="395" d="M147 29v1401q0 29 29 28h43q29 0 29 -28v-1401q0 -29 -29 -29h-43q-29 0 -29 29z" />
<glyph unicode="m" horiz-adv-x="1716" d="M147 29v995q0 29 29 29h41q29 0 29 -29v-121q37 84 124 131t203 47q242 0 314 -200q41 94 133 147t215 53q166 0 253 -94t87 -274v-684q0 -29 -29 -29h-43q-29 0 -28 29v667q0 152 -60.5 223.5t-189.5 71.5q-150 0 -232 -90t-82 -256v-616q0 -29 -28 -29h-43 q-29 0 -29 29v667q0 152 -60.5 223.5t-189.5 71.5q-150 0 -231.5 -90t-81.5 -256v-616q0 -29 -29 -29h-43q-29 0 -29 29z" />
<glyph unicode="n" horiz-adv-x="1073" d="M147 29v995q0 29 29 29h41q29 0 29 -29v-121q37 84 127 131t209 47q172 0 261 -94t89 -274v-684q0 -29 -29 -29h-43q-29 0 -29 29v667q0 295 -262 295q-154 0 -237.5 -90t-83.5 -256v-616q0 -29 -29 -29h-43q-29 0 -29 29z" />
<glyph unicode="o" horiz-adv-x="1064" d="M113 426v201q0 221 108.5 337.5t315.5 116.5q205 0 310 -115.5t105 -338.5v-201q0 -221 -108.5 -338t-315.5 -117q-205 0 -310 116t-105 339zM215 436q0 -379 317 -379t318 379v180q0 379 -318 379q-317 0 -317 -379v-180z" />
<glyph unicode="p" horiz-adv-x="1093" d="M141 -322v947q0 223 109.5 339.5t314.5 116.5t310.5 -115.5t105.5 -338.5v-178q0 -236 -106.5 -357t-311.5 -121q-123 0 -205 43t-116 127v-463q0 -29 -29 -28h-43q-29 0 -29 28zM242 440q0 -379 319 -379q317 0 318 379v176q0 379 -318 379q-319 0 -319 -379v-176z" />
<glyph unicode="q" horiz-adv-x="1093" d="M113 449v178q0 223 108.5 338.5t313.5 115.5t311 -116.5t106 -339.5v-947q0 -29 -28 -28h-43q-29 0 -29 28v463q-35 -84 -119 -127t-209 -43q-412 0 -411 478zM215 440q0 -379 317 -379q319 0 320 379v176q0 379 -320 379q-317 0 -317 -379v-176z" />
<glyph unicode="r" horiz-adv-x="677" d="M147 29v995q0 29 29 29h41q29 0 29 -29v-172q98 201 329 201h33q29 0 29 -29v-41q0 -29 -29 -29h-39q-158 0 -239.5 -106.5t-81.5 -310.5v-508q0 -29 -29 -29h-43q-29 0 -29 29z" />
<glyph unicode="s" horiz-adv-x="964" d="M102 240q0 20 6.5 26t22.5 6h33q18 0 23.5 -4t9.5 -24q23 -96 90 -141.5t192 -45.5q137 0 210 55.5t73 159.5q0 78 -45 126t-144 71l-178 43q-141 35 -205.5 103.5t-64.5 172.5v9q0 131 101.5 207.5t271.5 76.5q195 0 288 -102q33 -35 50.5 -79t17.5 -87q0 -20 -6 -26.5 t-23 -6.5h-32q-18 0 -23.5 4t-9.5 25q-23 98 -85.5 142t-180.5 44q-131 0 -200 -52t-69 -150q0 -78 47 -123t160 -72l176 -43q254 -61 254 -274v-11q0 -139 -102.5 -219t-280.5 -80q-102 0 -182 27t-127 76q-31 33 -49.5 78t-18.5 88z" />
<glyph unicode="t" horiz-adv-x="645" d="M20 995v29q0 29 29 29h158v293q0 29 29 28h43q29 0 28 -28v-293h230q29 0 28 -29v-29q0 -29 -28 -28h-230v-705q0 -92 33 -134t104 -42h99q29 0 28 -29v-28q0 -29 -28 -29h-92q-68 0 -114 13.5t-76 44t-42 80.5t-12 122v707h-158q-29 0 -29 28z" />
<glyph unicode="u" horiz-adv-x="1052" d="M141 340v684q0 29 29 29h43q29 0 29 -29v-668q0 -295 254 -295q147 0 228 90.5t81 256.5v616q0 29 29 29h43q29 0 28 -29v-995q0 -29 -28 -29h-41q-29 0 -29 29v121q-35 -84 -122 -131.5t-204 -47.5q-166 0 -253 94.5t-87 274.5z" />
<glyph unicode="v" horiz-adv-x="911" d="M33 1034q0 18 20 19h53q23 0 31 -25l320 -909l321 909q8 25 31 25h49q20 0 21 -19q0 -8 -9 -30l-350 -979q-8 -25 -31 -25h-63q-23 0 -31 25l-354 979q-8 23 -8 30z" />
<glyph unicode="w" horiz-adv-x="1427" d="M31 1038q0 14 22 15h49q23 0 31 -25l256 -917l264 876q8 25 31 25h59q23 0 31 -25l264 -885l260 926q8 25 31 25h45q23 0 23 -15q0 -4 -2 -13t-6 -19l-287 -981q-8 -25 -31 -25h-67q-23 0 -31 25l-262 862l-260 -862q-8 -25 -31 -25h-64q-23 0 -30 25l-287 981 q-4 12 -6 20t-2 12z" />
<glyph unicode="x" horiz-adv-x="921" d="M41 14q0 6 6 17l356 514l-333 477q-6 8 -7 16q0 14 21 15h57q25 0 37 -21l281 -418l280 418q12 20 37 21h53q20 0 21 -15q0 -8 -6 -16l-328 -475l358 -516q6 -10 7 -17q0 -14 -21 -14h-57q-25 0 -37 20l-305 459l-309 -459q-12 -20 -37 -20h-54q-20 0 -20 14z" />
<glyph unicode="y" horiz-adv-x="907" d="M33 1034q0 18 20 19h53q23 0 31 -25l326 -874l311 874q8 25 31 25h49q20 0 20 -19q0 -8 -8 -30l-397 -1104q-27 -74 -52.5 -122t-56 -77t-70.5 -40t-93 -11h-52q-29 0 -28 28v29q0 29 28 29h45q37 0 65 9t49.5 31.5t39.5 60.5t39 97l31 91l-373 979q-8 23 -8 30z" />
<glyph unicode="z" horiz-adv-x="958" d="M92 29v14q0 16 2 22.5t12 18.5l621 883h-577q-29 0 -29 28v29q0 29 29 29h669q29 0 29 -29v-14q0 -12 -2 -18.5t-12 -22.5l-621 -883h625q29 0 28 -29v-28q0 -29 -28 -29h-717q-29 0 -29 29z" />
<glyph unicode="{" horiz-adv-x="600" d="M20 539v22q0 29 29 29q80 0 123 54t43 159v348q0 160 63.5 233.5t200.5 73.5h51q29 0 29 -28v-23q0 -29 -29 -29h-47q-98 0 -136 -52t-38 -185v-338q0 -186 -133 -252q133 -66 133 -254v-338q0 -133 38 -185.5t136 -52.5h47q29 0 29 -28v-23q0 -29 -29 -28h-51 q-137 0 -200.5 73.5t-63.5 233.5v348q0 104 -43 158.5t-123 54.5q-29 0 -29 29z" />
<glyph unicode="|" horiz-adv-x="481" d="M195 -322v1752q0 29 28 28h35q29 0 29 -28v-1752q0 -29 -29 -28h-35q-29 0 -28 28z" />
<glyph unicode="}" horiz-adv-x="600" d="M41 -307q0 29 29 28h47q98 0 136 52.5t38 185.5v338q0 186 133 252q-133 66 -133 254v338q0 133 -38 185t-136 52h-47q-29 0 -29 29v23q0 29 29 28h51q137 0 200.5 -73.5t63.5 -233.5v-348q0 -104 43 -158.5t123 -54.5q29 0 29 -29v-22q0 -29 -29 -29q-80 0 -123 -54.5 t-43 -158.5v-348q0 -160 -63.5 -233.5t-200.5 -73.5h-51q-29 0 -29 28v23z" />
<glyph unicode="~" d="M150 475v154q0 237 174 237q51 0 99 -24.5t107 -79.5l138 -125q39 -37 65.5 -58.5t46 -34t34.5 -16.5t32 -4q47 0 68.5 39t21.5 127v144q0 29 29 28h24q29 0 29 -28v-152q0 -238 -174 -238q-51 0 -99.5 25t-107.5 80l-137 125q-39 37 -65.5 58.5t-46 33.5t-35 16t-31.5 4 q-47 0 -69 -38.5t-22 -126.5v-146q0 -29 -28 -29h-25q-29 0 -28 29z" />
<glyph unicode="&#xa1;" horiz-adv-x="442" d="M133 1014v26q0 35 23.5 56.5t64.5 21.5t64.5 -21.5t23.5 -56.5v-26q0 -35 -23.5 -56.5t-64.5 -21.5t-64.5 21.5t-23.5 56.5zM168 -322l12 1063q0 29 29 29h27q29 0 28 -29l12 -1063q0 -29 -28 -28h-51q-29 0 -29 28z" />
<glyph unicode="&#xa2;" d="M190 434v205q0 211 95.5 329.5t273.5 131.5v153q0 29 29 29h35q29 0 28 -29v-153q74 -8 135.5 -34t102.5 -67q39 -41 60.5 -88t21.5 -88q0 -29 -29 -28h-37q-18 0 -22 4t-11 24q-51 170 -221 189v-953q88 12 146.5 62.5t76.5 128.5q4 20 9.5 24.5t23.5 4.5h37 q29 0 29 -27q0 -41 -24.5 -91t-61.5 -85q-88 -86 -236 -101v-165q0 -29 -28 -29h-35q-29 0 -29 29v163q-182 10 -275.5 127t-93.5 334zM293 446q0 -362 266 -387v955q-266 -29 -266 -387v-181z" />
<glyph unicode="&#xa3;" d="M109 682v45q0 23 30 23h90v258q0 193 103.5 295t298.5 102q236 0 340 -154q20 -29 34.5 -78t14.5 -88q0 -18 -6 -24t-23 -6h-35q-16 0 -22 5t-10 23q-43 231 -295 232q-297 0 -297 -316v-249h416q31 0 30 -23v-45q0 -23 -30 -23h-416v-569h649q31 0 31 -22v-45 q0 -23 -31 -23h-721q-31 0 -31 23v636h-90q-31 0 -30 23z" />
<glyph unicode="&#xa4;" d="M115 219q0 8 14 25l109 125q-59 63 -91 144t-32 173q0 94 33.5 177t93.5 147l-113 131q-14 16 -14 24q0 10 14 25l23 22q14 14 26 15q10 0 23 -15l116 -137q57 39 124 60.5t141 21.5t140 -21.5t124 -60.5l119 137q12 14 22 15q12 0 27 -15l22 -22q14 -14 15 -25 q0 -8 -15 -24l-112 -131q59 -63 94 -146.5t35 -177.5q0 -92 -34 -173t-91 -144l108 -125q14 -16 15 -25q0 -10 -15 -24l-22 -23q-14 -14 -27 -14q-10 0 -22 14l-113 131q-59 -41 -127 -62.5t-143 -21.5q-76 0 -143.5 21.5t-125.5 62.5l-112 -131q-12 -14 -23 -14 q-12 0 -26 14l-23 23q-14 14 -14 24zM209 686q0 -80 28.5 -149.5t80 -122t119 -82t145.5 -29.5t146.5 29.5t119.5 82t80.5 122t29.5 149.5t-29.5 150.5t-80.5 123t-119.5 83t-146.5 30.5t-145.5 -30.5t-119 -83t-80 -123t-28.5 -150.5z" />
<glyph unicode="&#xa5;" d="M88 1360q0 16 23 16h55q12 0 17 -4t14 -20l389 -711l391 711q8 16 14 20t17 4h51q23 0 22 -16q0 -6 -10 -25l-387 -698h252q29 0 29 -29v-33q0 -29 -29 -28h-299v-154h299q29 0 29 -28v-33q0 -29 -29 -29h-299v-276q0 -27 -27 -27h-47q-25 0 -26 27v276h-301 q-29 0 -29 29v33q0 29 29 28h301v154h-301q-29 0 -29 28v33q0 29 29 29h249l-387 698q-10 20 -10 25z" />
<glyph unicode="&#xa6;" horiz-adv-x="481" d="M195 225q0 29 28 29h35q29 0 29 -29v-547q0 -29 -29 -28h-35q-29 0 -28 28v547zM195 883v547q0 29 28 28h35q29 0 29 -28v-547q0 -29 -29 -29h-35q-29 0 -28 29z" />
<glyph unicode="&#xa7;" horiz-adv-x="978" d="M96 240q0 20 6.5 26t22.5 6h33q18 0 23 -4t9 -24q23 -96 90.5 -141.5t192.5 -45.5q137 0 211 51.5t74 145.5q0 72 -46 115t-145 65l-178 39q-141 31 -205.5 93.5t-64.5 166.5q0 94 45 157.5t131 90.5q-176 70 -176 238q0 127 98 197.5t275 70.5q195 0 288 -103 q33 -35 50.5 -78.5t17.5 -86.5q0 -20 -6 -26.5t-23 -6.5h-33q-18 0 -23 4t-9 24q-23 98 -83.5 142.5t-183.5 44.5q-133 0 -201.5 -46t-68.5 -132q0 -78 45 -119t164 -70l176 -41q254 -57 254 -258q0 -90 -45 -156.5t-125 -95.5q170 -68 170 -233q0 -131 -101.5 -205 t-281.5 -74q-102 0 -182 27t-127 76q-31 31 -49.5 78t-18.5 88zM217 737q0 -39 10.5 -66.5t35 -49t64.5 -39t99 -31.5l47 -12q18 -4 36.5 -7.5t41.5 -3.5q90 0 148.5 59.5t58.5 149.5q0 72 -46 115t-145 63l-108 23q-29 6 -51 6q-84 0 -137.5 -57.5t-53.5 -149.5z" />
<glyph unicode="&#xa8;" horiz-adv-x="1024" d="M281 1362v24q0 29 18 45.5t53 16.5q33 0 52.5 -16.5t19.5 -45.5v-24q0 -29 -19.5 -45.5t-52.5 -16.5q-35 0 -53 16.5t-18 45.5zM598 1362v24q0 29 19.5 45.5t52.5 16.5q35 0 53 -16.5t18 -45.5v-24q0 -29 -18 -45.5t-53 -16.5q-33 0 -52.5 16.5t-19.5 45.5z" />
<glyph unicode="&#xa9;" horiz-adv-x="1728" d="M102 729q0 166 56.5 306.5t158 241.5t241.5 157.5t306 56.5t306.5 -56.5t241.5 -157.5t157.5 -241.5t56.5 -306.5t-56.5 -306t-157.5 -241.5t-241.5 -158t-306.5 -56.5t-306 56.5t-241.5 158t-158 241.5t-56.5 306zM190 729q0 -147 50.5 -271t140.5 -215t213 -141.5 t270 -50.5t270 50.5t213.5 141.5t140.5 215t50 271t-50 271t-140.5 215.5t-213.5 141.5t-270 50t-270 -50t-213 -141.5t-140.5 -215t-50.5 -271.5zM553 662v147q0 160 82 248t235 88q72 0 131.5 -21.5t94.5 -60.5q27 -29 42 -67t15 -74q0 -20 -23 -21h-38q-16 0 -19.5 2 t-7.5 19q-31 143 -195 143q-113 0 -170 -67.5t-57 -196.5v-131q0 -264 223 -264q84 0 137.5 38.5t63.5 104.5q2 14 6 17t21 3h39q23 0 22 -20q0 -35 -18.5 -76t-44.5 -65q-87 -82 -230 -82q-152 0 -230.5 85t-78.5 251z" />
<glyph unicode="&#xaa;" horiz-adv-x="669" d="M61 942q0 113 63.5 165t203.5 52q90 0 172 -16v110q0 127 -158 127q-66 0 -102.5 -21.5t-59.5 -68.5q-4 -10 -9 -12t-17 -2h-39q-20 0 -21 16q0 20 17 54q29 53 88 82.5t145 29.5q244 0 244 -207v-274q0 -129 -60.5 -185.5t-201.5 -56.5h-11q-135 0 -194.5 48t-59.5 159z M150 950q0 -78 37.5 -109.5t127.5 -31.5h9q98 0 137 36t39 128v98q-57 10 -96 13t-68 3q-100 0 -143 -31.5t-43 -105.5z" />
<glyph unicode="&#xab;" horiz-adv-x="884" d="M41 561v47q0 12 4 19.5t14 17.5l330 340q10 10 21 10q14 0 14 -18v-66q0 -10 -3 -17t-15 -20l-279 -288l279 -287q12 -12 15 -18.5t3 -18.5v-69q0 -18 -14 -19q-10 0 -21 10l-330 340q-18 20 -18 37zM410 561v47q0 12 4 19.5t14 17.5l330 340q10 10 21 10q14 0 14 -18 v-66q0 -10 -3 -17t-15 -20l-279 -288l279 -287q12 -12 15 -18.5t3 -18.5v-69q0 -18 -14 -19q-10 0 -21 10l-330 340q-18 20 -18 37z" />
<glyph unicode="&#xac;" d="M176 752v24q0 29 29 29h758q29 0 28 -29v-436q0 -29 -28 -29h-29q-29 0 -29 29v383h-700q-29 0 -29 29z" />
<glyph unicode="&#xad;" horiz-adv-x="712" d="M72 537v32q0 29 28 29h512q29 0 29 -29v-32q0 -29 -29 -29h-512q-29 0 -28 29z" />
<glyph unicode="&#xae;" horiz-adv-x="946" d="M61 1079q0 90 31 166t85 130.5t130 85t166 30.5t166 -30.5t130 -85t85 -130.5t31 -166t-31 -165.5t-85 -130t-130 -85t-166 -30.5t-166 30.5t-130 85t-85 130t-31 165.5zM141 1079q0 -74 24.5 -136t69 -107t104.5 -70t134 -25t134.5 25t104.5 70t68.5 107.5t24.5 135.5 q0 74 -24.5 136.5t-68.5 107.5t-104.5 69.5t-134.5 24.5t-134 -24.5t-104.5 -69.5t-69 -107.5t-24.5 -136.5zM332 883v401q0 16 5 21.5t21 5.5h136q147 0 147 -131v-15q0 -98 -88 -123l80 -135q16 -25 16 -37q0 -14 -18 -14h-27q-20 0 -31 16l-88 160h-84v-149 q0 -16 -4 -21.5t-20 -5.5h-21q-14 0 -19 5t-5 22zM401 1094h84q47 0 66.5 17t19.5 58v9q0 37 -19.5 54t-66.5 17h-84v-155z" />
<glyph unicode="&#xaf;" horiz-adv-x="1024" d="M260 1319v35q0 29 29 28h446q29 0 29 -28v-35q0 -29 -29 -29h-446q-29 0 -29 29z" />
<glyph unicode="&#xb0;" horiz-adv-x="700" d="M76 1188q0 57 20.5 107.5t57 87t87 58t109.5 21.5t109.5 -20.5t87.5 -57t57.5 -87t20.5 -109.5t-21.5 -109.5t-58.5 -87.5t-87 -57.5t-108 -20.5q-59 0 -109.5 20.5t-87 57.5t-57 87t-20.5 110zM162 1188q0 -86 52 -140.5t136 -54.5q80 0 134.5 55.5t54.5 139.5 q0 86 -52.5 140t-136.5 54q-80 0 -134 -55t-54 -139z" />
<glyph unicode="&#xb1;" d="M176 682v25q0 29 29 28h336v357q0 29 28 28h29q29 0 29 -28v-357h336q29 0 28 -28v-25q0 -29 -28 -29h-336v-368q0 -29 -29 -29h-29q-29 0 -28 29v368h-336q-29 0 -29 29zM197 31v24q0 29 28 29h717q29 0 29 -29v-24q0 -29 -29 -29h-717q-29 0 -28 29z" />
<glyph unicode="&#xb2;" horiz-adv-x="712" d="M74 858v62q0 174 205 276l112 58q84 43 120 85t36 97v8q0 141 -172 141q-164 0 -199 -131q-4 -14 -8 -17t-21 -3h-30q-16 0 -20.5 4t-4.5 18q0 20 10.5 49t26.5 52q33 51 95.5 78.5t144.5 27.5q127 0 195.5 -54t68.5 -155v-18q0 -76 -44 -132t-145 -110l-116 -61 q-92 -49 -130 -97.5t-38 -115.5h444q27 0 27 -27v-24q0 -27 -27 -27h-512q-18 0 -18 16z" />
<glyph unicode="&#xb3;" horiz-adv-x="712" d="M59 1030q0 14 4.5 18.5t20.5 4.5h31q16 0 20 -3t8 -18q16 -66 67.5 -98.5t133.5 -32.5q102 0 156.5 41t54.5 119v8q0 154 -186 154h-56q-27 0 -26 27v24q0 27 26 27h56q174 0 174 143v8q0 66 -48.5 99.5t-140.5 33.5q-82 0 -133 -32.5t-67 -98.5q-4 -14 -8.5 -17 t-20.5 -3h-31q-16 0 -20 4t-4 18q0 41 36 101q70 106 250 106q129 0 201 -52t72 -148v-17q0 -63 -32 -110.5t-89 -69.5q135 -43 135 -188v-17q0 -111 -79 -174t-218 -63q-184 0 -252 104q-35 51 -35 102z" />
<glyph unicode="&#xb4;" horiz-adv-x="1024" d="M378 1225q0 8 7 18l147 234q12 18 37 18h55q20 0 21 -16q0 -6 -9 -19l-167 -233q-12 -18 -37 -19h-35q-18 0 -19 17z" />
<glyph unicode="&#xb5;" horiz-adv-x="1058" d="M147 -322v1346q0 29 29 29h43q29 0 29 -29v-668q0 -295 254 -295q147 0 228 90.5t81 256.5v616q0 29 29 29h43q29 0 28 -29v-995q0 -29 -28 -29h-41q-29 0 -29 29v121q-35 -84 -121 -131.5t-192 -47.5q-176 0 -252 111v-404q0 -29 -29 -28h-43q-29 0 -29 28z" />
<glyph unicode="&#xb6;" horiz-adv-x="1222" d="M113 1032v35q0 205 102 298t326 93h592q29 0 28 -28v-25q0 -29 -28 -29h-117v-1698q0 -29 -29 -28h-39q-29 0 -28 28v1698h-312v-1698q0 -29 -28 -28h-39q-29 0 -29 28v975q-199 8 -299 103.5t-100 275.5z" />
<glyph unicode="&#xb7;" horiz-adv-x="389" d="M106 541v26q0 35 24 56.5t65 21.5t64.5 -21.5t23.5 -56.5v-26q0 -35 -23.5 -56.5t-64.5 -21.5t-65 21.5t-24 56.5z" />
<glyph unicode="&#xb8;" horiz-adv-x="1024" d="M332 -295q0 16 5 20.5t22 4.5h147q96 0 96 88q0 14 -3 33.5t-7 48.5l-31 135h90l27 -121q6 -31 10 -58.5t4 -43.5q0 -166 -188 -166h-145q-16 0 -21.5 4t-5.5 20v35z" />
<glyph unicode="&#xb9;" horiz-adv-x="712" d="M152 1598v24q0 27 26 27h260q27 0 27 -27v-755q0 -16 -4 -20.5t-21 -4.5h-34q-16 0 -21.5 4t-5.5 21v704h-201q-27 0 -26 27z" />
<glyph unicode="&#xba;" horiz-adv-x="702" d="M72 1028v133q0 145 72.5 221t209.5 76q135 0 206 -74.5t71 -222.5v-133q0 -143 -73 -219t-210 -76q-135 0 -205.5 75t-70.5 220zM160 1040q0 -229 190 -229q193 0 193 229v111q0 229 -193 229q-190 0 -190 -229v-111z" />
<glyph unicode="&#xbb;" horiz-adv-x="884" d="M92 193v65q0 12 4 19.5t15 17.5l278 287l-278 288q-18 20 -19 37v70q0 18 14 18q10 0 21 -10l330 -340q12 -10 15 -17t3 -20v-47q0 -10 -3 -17t-15 -20l-330 -340q-10 -10 -21 -10q-14 0 -14 19zM461 193v65q0 12 4 19.5t15 17.5l278 287l-278 288q-18 20 -19 37v70 q0 18 14 18q10 0 21 -10l330 -340q12 -10 15 -17t3 -20v-47q0 -10 -3 -17t-15 -20l-330 -340q-10 -10 -21 -10q-14 0 -14 19z" />
<glyph unicode="&#xbc;" horiz-adv-x="1624" d="M140 1325v24q0 27 26 27h260q27 0 27 -27v-755q0 -16 -4 -20.5t-21 -4.5h-34q-16 0 -21.5 4t-5.5 21v704h-201q-27 0 -26 27zM426 16q0 8 10 25l690 1311q8 16 14.5 20t16.5 4h39q23 0 22 -16q0 -4 -10 -25l-690 -1310q-8 -16 -14.5 -20.5t-16.5 -4.5h-39q-23 0 -22 16z M974 205v35q0 16 2.5 22t8.5 14l368 512q12 18 31 19h51q27 0 27 -27v-520h70q27 0 26 -27v-22q0 -27 -26 -27h-70v-159q0 -16 -4 -20.5t-21 -4.5h-34q-16 0 -19.5 4t-3.5 21v159h-385q-20 0 -21 21zM1061 260h319v445z" />
<glyph unicode="&#xbd;" horiz-adv-x="1624" d="M140 1325v24q0 27 26 27h260q27 0 27 -27v-755q0 -16 -4 -20.5t-21 -4.5h-34q-16 0 -21.5 4t-5.5 21v704h-201q-27 0 -26 27zM375 16q0 8 10 25l690 1311q8 16 14.5 20t16.5 4h39q23 0 22 -16q0 -4 -10 -25l-690 -1310q-8 -16 -14.5 -20.5t-16.5 -4.5h-39q-23 0 -22 16z M994 16v62q0 174 205 276l112 58q84 43 120 85t36 97v8q0 141 -172 141q-164 0 -199 -131q-4 -14 -8 -17t-21 -3h-30q-16 0 -20.5 4t-4.5 18q0 20 10.5 49t26.5 52q33 51 95.5 78.5t144.5 27.5q127 0 195.5 -54t68.5 -155v-18q0 -76 -44 -132t-145 -110l-116 -61 q-92 -49 -130 -97.5t-38 -115.5h444q27 0 27 -27v-24q0 -27 -27 -27h-512q-18 0 -18 16z" />
<glyph unicode="&#xbe;" horiz-adv-x="1624" d="M59 757q0 14 4.5 18.5t20.5 4.5h31q16 0 20 -3t8 -18q16 -66 67.5 -98.5t133.5 -32.5q102 0 156.5 41t54.5 119v8q0 154 -186 154h-56q-27 0 -26 27v24q0 27 26 27h56q174 0 174 143v8q0 66 -48.5 99.5t-140.5 33.5q-82 0 -133 -32.5t-67 -98.5q-4 -14 -8.5 -17t-20.5 -3 h-31q-16 0 -20 4t-4 18q0 41 36 101q70 106 250 106q129 0 201 -52t72 -148v-17q0 -63 -32 -110.5t-89 -69.5q135 -43 135 -188v-17q0 -111 -79 -174t-218 -63q-184 0 -252 104q-35 51 -35 102zM473 16q0 8 10 25l690 1311q8 16 14.5 20t16.5 4h39q23 0 22 -16q0 -4 -10 -25 l-690 -1310q-8 -16 -14.5 -20.5t-16.5 -4.5h-39q-23 0 -22 16zM974 205v35q0 16 2.5 22t8.5 14l368 512q12 18 31 19h51q27 0 27 -27v-520h70q27 0 26 -27v-22q0 -27 -26 -27h-70v-159q0 -16 -4 -20.5t-21 -4.5h-34q-16 0 -19.5 4t-3.5 21v159h-385q-20 0 -21 21zM1061 260 h319v445z" />
<glyph unicode="&#xbf;" horiz-adv-x="966" d="M102 16q0 94 46.5 179.5t134.5 146.5l57 41q35 25 57.5 47.5t37 50t19.5 63.5t5 85v112q0 29 28 29h33q29 0 29 -29v-98q0 -72 -8.5 -121t-26.5 -87t-49 -68.5t-78 -63.5l-57 -39q-61 -43 -93 -112.5t-32 -147.5v-29q0 -262 289 -262q143 0 215.5 54.5t99.5 179.5 q4 20 9 24t24 4h35q16 0 22 -6t6 -24q0 -33 -16.5 -80t-42.5 -86q-49 -76 -139.5 -115t-212.5 -39q-391 0 -392 352v39zM414 1014v26q0 35 23.5 56.5t64.5 21.5t64.5 -21.5t23.5 -56.5v-26q0 -35 -23.5 -56.5t-64.5 -21.5t-64.5 21.5t-23.5 56.5z" />
<glyph unicode="&#xc0;" horiz-adv-x="1181" d="M43 16q0 6 6 23l475 1395q8 25 31 24h70q23 0 30 -24l478 -1395q6 -16 6 -23q0 -16 -23 -16h-55q-23 0 -31 25l-137 403h-610l-136 -403q-8 -25 -30 -25h-51q-23 0 -23 16zM313 518h549l-276 807zM365 1810q0 16 20 17h60q25 0 36 -19l160 -192q8 -10 8 -21 q0 -14 -20 -14h-39q-14 0 -20.5 4t-16.5 14l-178 193q-10 10 -10 18z" />
<glyph unicode="&#xc1;" horiz-adv-x="1181" d="M43 16q0 6 6 23l475 1395q8 25 31 24h70q23 0 30 -24l478 -1395q6 -16 6 -23q0 -16 -23 -16h-55q-23 0 -31 25l-137 403h-610l-136 -403q-8 -25 -30 -25h-51q-23 0 -23 16zM313 518h549l-276 807zM531 1595q0 10 8 21l160 192q12 18 36 19h60q20 0 20 -17q0 -8 -10 -18 l-178 -193q-10 -10 -16.5 -14t-20.5 -4h-39q-20 0 -20 14z" />
<glyph unicode="&#xc2;" horiz-adv-x="1181" d="M43 16q0 6 6 23l475 1395q8 25 31 24h70q23 0 30 -24l478 -1395q6 -16 6 -23q0 -16 -23 -16h-55q-23 0 -31 25l-137 403h-610l-136 -403q-8 -25 -30 -25h-51q-23 0 -23 16zM313 518h549l-276 807zM336 1597q0 10 12 23l172 188q10 12 17.5 15.5t19.5 3.5h66q12 0 19 -3 t18 -16l172 -188q12 -12 12 -23q0 -16 -21 -16h-47q-16 0 -36 18l-150 150l-150 -150q-20 -18 -36 -18h-47q-20 0 -21 16z" />
<glyph unicode="&#xc3;" horiz-adv-x="1181" d="M43 16q0 6 6 23l475 1395q8 25 31 24h70q23 0 30 -24l478 -1395q6 -16 6 -23q0 -16 -23 -16h-55q-23 0 -31 25l-137 403h-610l-136 -403q-8 -25 -30 -25h-51q-23 0 -23 16zM297 1606v10q0 92 38 141t110 49q59 0 141 -61l55 -43q33 -25 54.5 -35t39.5 -10q63 0 64 108v11 q0 16 5 20t22 4h32q16 0 21.5 -4t5.5 -20v-11q0 -92 -38 -141t-110 -49q-59 0 -141 61l-55 43q-33 25 -54.5 35t-39.5 10q-63 0 -64 -108v-10q0 -16 -5 -20.5t-21 -4.5h-33q-16 0 -21.5 4t-5.5 21zM313 518h549l-276 807z" />
<glyph unicode="&#xc4;" horiz-adv-x="1181" d="M43 16q0 6 6 23l475 1395q8 25 31 24h70q23 0 30 -24l478 -1395q6 -16 6 -23q0 -16 -23 -16h-55q-23 0 -31 25l-137 403h-610l-136 -403q-8 -25 -30 -25h-51q-23 0 -23 16zM313 518h549l-276 807zM344 1683v25q0 63 74 64q74 0 74 -64v-25q0 -63 -74 -63t-74 63z M690 1683v25q0 63 74 64q74 0 74 -64v-25q0 -63 -74 -63t-74 63z" />
<glyph unicode="&#xc5;" horiz-adv-x="1181" d="M43 16q0 6 6 23l475 1395q8 25 31 24h70q23 0 30 -24l478 -1395q6 -16 6 -23q0 -16 -23 -16h-55q-23 0 -31 25l-137 403h-610l-136 -403q-8 -25 -30 -25h-51q-23 0 -23 16zM313 518h549l-276 807zM369 1589q0 96 61.5 155.5t159.5 59.5q100 0 160.5 -58.5t60.5 -156.5 t-60.5 -155.5t-160.5 -57.5t-160.5 57.5t-60.5 155.5zM459 1589q0 -61 35 -95t96 -34t96 34t35 95q0 59 -36 95t-95 36t-95 -36t-36 -95z" />
<glyph unicode="&#xc6;" horiz-adv-x="1837" d="M35 18q0 8 10 25l805 1397q8 10 14 14t23 4h782q29 0 29 -28v-33q0 -29 -29 -29h-663v-573h618q29 0 29 -29v-33q0 -29 -29 -28h-618v-615h677q29 0 29 -29v-32q0 -29 -29 -29h-753q-27 0 -27 27v399h-524l-234 -408q-8 -10 -14 -14t-22 -4h-54q-20 0 -20 18zM430 516 h473v827z" />
<glyph unicode="&#xc7;" horiz-adv-x="1173" d="M127 526v406q0 276 125 417.5t366 141.5q305 0 418 -223q16 -31 24.5 -73t8.5 -85q0 -29 -29 -29h-39q-27 0 -28 23q-16 147 -105.5 222t-249.5 75q-199 0 -293 -119t-94 -364v-377q0 -248 92.5 -366t286.5 -118q162 0 254.5 76t108.5 221q2 23 28 23h39q29 0 29 -29 q0 -37 -11 -80t-28 -78q-51 -109 -160.5 -166t-259.5 -57q-240 0 -361.5 140.5t-121.5 418.5zM338 -301q0 16 5 20.5t21 4.5h158q94 0 94 88q0 23 -2 41t-8 43l-31 139h92l27 -125q6 -31 10 -59.5t4 -45.5q0 -170 -188 -170h-156q-27 0 -26 27v37z" />
<glyph unicode="&#xc8;" horiz-adv-x="1095" d="M162 27v1403q0 29 28 28h738q29 0 28 -28v-33q0 -29 -28 -29h-664v-573h619q29 0 28 -29v-33q0 -29 -28 -28h-619v-615h678q29 0 29 -29v-32q0 -29 -29 -29h-754q-27 0 -26 27zM344 1810q0 16 20 17h60q25 0 36 -19l160 -192q8 -10 8 -21q0 -14 -20 -14h-39 q-14 0 -20.5 4t-16.5 14l-178 193q-10 10 -10 18z" />
<glyph unicode="&#xc9;" horiz-adv-x="1095" d="M162 27v1403q0 29 28 28h738q29 0 28 -28v-33q0 -29 -28 -29h-664v-573h619q29 0 28 -29v-33q0 -29 -28 -28h-619v-615h678q29 0 29 -29v-32q0 -29 -29 -29h-754q-27 0 -26 27zM510 1595q0 10 8 21l160 192q12 18 36 19h60q20 0 20 -17q0 -8 -10 -18l-178 -193 q-10 -10 -16.5 -14t-20.5 -4h-39q-20 0 -20 14z" />
<glyph unicode="&#xca;" horiz-adv-x="1095" d="M162 27v1403q0 29 28 28h738q29 0 28 -28v-33q0 -29 -28 -29h-664v-573h619q29 0 28 -29v-33q0 -29 -28 -28h-619v-615h678q29 0 29 -29v-32q0 -29 -29 -29h-754q-27 0 -26 27zM315 1597q0 10 12 23l172 188q10 12 17.5 15.5t19.5 3.5h66q12 0 19 -3t18 -16l172 -188 q12 -12 12 -23q0 -16 -21 -16h-47q-16 0 -36 18l-150 150l-150 -150q-20 -18 -36 -18h-47q-20 0 -21 16z" />
<glyph unicode="&#xcb;" horiz-adv-x="1095" d="M162 27v1403q0 29 28 28h738q29 0 28 -28v-33q0 -29 -28 -29h-664v-573h619q29 0 28 -29v-33q0 -29 -28 -28h-619v-615h678q29 0 29 -29v-32q0 -29 -29 -29h-754q-27 0 -26 27zM323 1683v25q0 63 74 64q74 0 74 -64v-25q0 -63 -74 -63t-74 63zM669 1683v25q0 63 74 64 q74 0 74 -64v-25q0 -63 -74 -63t-74 63z" />
<glyph unicode="&#xcc;" horiz-adv-x="425" d="M-12 1810q0 16 20 17h60q25 0 36 -19l160 -192q8 -10 8 -21q0 -14 -20 -14h-39q-14 0 -20.5 4t-16.5 14l-178 193q-10 10 -10 18zM162 29v1401q0 29 28 28h46q29 0 28 -28v-1401q0 -29 -28 -29h-46q-29 0 -28 29z" />
<glyph unicode="&#xcd;" horiz-adv-x="425" d="M154 1595q0 10 8 21l160 192q12 18 36 19h60q20 0 20 -17q0 -8 -10 -18l-178 -193q-10 -10 -16.5 -14t-20.5 -4h-39q-20 0 -20 14zM162 29v1401q0 29 28 28h46q29 0 28 -28v-1401q0 -29 -28 -29h-46q-29 0 -28 29z" />
<glyph unicode="&#xce;" horiz-adv-x="425" d="M-41 1597q0 10 12 23l172 188q10 12 17.5 15.5t19.5 3.5h66q12 0 19 -3t18 -16l172 -188q12 -12 12 -23q0 -16 -21 -16h-47q-16 0 -36 18l-150 150l-150 -150q-20 -18 -36 -18h-47q-20 0 -21 16zM162 29v1401q0 29 28 28h46q29 0 28 -28v-1401q0 -29 -28 -29h-46 q-29 0 -28 29z" />
<glyph unicode="&#xcf;" horiz-adv-x="425" d="M-33 1683v25q0 63 74 64q74 0 74 -64v-25q0 -63 -74 -63t-74 63zM162 29v1401q0 29 28 28h46q29 0 28 -28v-1401q0 -29 -28 -29h-46q-29 0 -28 29zM313 1683v25q0 63 74 64q74 0 74 -64v-25q0 -63 -74 -63t-74 63z" />
<glyph unicode="&#xd0;" horiz-adv-x="1220" d="M4 715v26q0 29 29 29h129v649q0 39 28 39h396q508 0 508 -536v-385q0 -268 -128 -402.5t-380 -134.5h-398q-27 0 -26 27v659h-129q-29 0 -29 29zM266 90h320q211 0 307 110.5t96 350.5v356q0 240 -96 350.5t-307 110.5h-320v-598h242q29 0 29 -29v-26q0 -29 -29 -29h-242 v-596z" />
<glyph unicode="&#xd1;" horiz-adv-x="1275" d="M162 29v1401q0 29 28 28h50q25 0 34 -18l746 -1276v1266q0 29 29 28h36q29 0 29 -28v-1401q0 -29 -29 -29h-49q-25 0 -35 18l-745 1274v-1263q0 -29 -29 -29h-37q-29 0 -28 29zM344 1606v10q0 92 38 141t110 49q59 0 141 -61l55 -43q33 -25 54.5 -35t39.5 -10 q63 0 64 108v11q0 16 5 20t22 4h32q16 0 21.5 -4t5.5 -20v-11q0 -92 -38 -141t-110 -49q-59 0 -141 61l-55 43q-33 25 -54.5 35t-39.5 10q-63 0 -64 -108v-10q0 -16 -5 -20.5t-21 -4.5h-33q-16 0 -21.5 4t-5.5 21z" />
<glyph unicode="&#xd2;" horiz-adv-x="1226" d="M127 526v406q0 279 121.5 419t363.5 140q487 0 488 -559v-406q0 -279 -123 -419t-365 -140q-485 0 -485 559zM231 541q0 -252 91.5 -368t289.5 -116q199 0 291 116t92 368v377q0 252 -92 367.5t-291 115.5t-290 -116t-91 -367v-377zM387 1810q0 16 20 17h60q25 0 36 -19 l160 -192q8 -10 8 -21q0 -14 -20 -14h-39q-14 0 -20.5 4t-16.5 14l-178 193q-10 10 -10 18z" />
<glyph unicode="&#xd3;" horiz-adv-x="1226" d="M127 526v406q0 279 121.5 419t363.5 140q487 0 488 -559v-406q0 -279 -123 -419t-365 -140q-485 0 -485 559zM231 541q0 -252 91.5 -368t289.5 -116q199 0 291 116t92 368v377q0 252 -92 367.5t-291 115.5t-290 -116t-91 -367v-377zM553 1595q0 10 8 21l160 192 q12 18 36 19h60q20 0 20 -17q0 -8 -10 -18l-178 -193q-10 -10 -16.5 -14t-20.5 -4h-39q-20 0 -20 14z" />
<glyph unicode="&#xd4;" horiz-adv-x="1226" d="M127 526v406q0 279 121.5 419t363.5 140q487 0 488 -559v-406q0 -279 -123 -419t-365 -140q-485 0 -485 559zM231 541q0 -252 91.5 -368t289.5 -116q199 0 291 116t92 368v377q0 252 -92 367.5t-291 115.5t-290 -116t-91 -367v-377zM358 1597q0 10 12 23l172 188 q10 12 17.5 15.5t19.5 3.5h66q12 0 19 -3t18 -16l172 -188q12 -12 12 -23q0 -16 -21 -16h-47q-16 0 -36 18l-150 150l-150 -150q-20 -18 -36 -18h-47q-20 0 -21 16z" />
<glyph unicode="&#xd5;" horiz-adv-x="1226" d="M127 526v406q0 279 121.5 419t363.5 140q487 0 488 -559v-406q0 -279 -123 -419t-365 -140q-485 0 -485 559zM231 541q0 -252 91.5 -368t289.5 -116q199 0 291 116t92 368v377q0 252 -92 367.5t-291 115.5t-290 -116t-91 -367v-377zM319 1606v10q0 92 38 141t110 49 q59 0 141 -61l55 -43q33 -25 54.5 -35t39.5 -10q63 0 64 108v11q0 16 5 20t22 4h32q16 0 21.5 -4t5.5 -20v-11q0 -92 -38 -141t-110 -49q-59 0 -141 61l-55 43q-33 25 -54.5 35t-39.5 10q-63 0 -64 -108v-10q0 -16 -5 -20.5t-21 -4.5h-33q-16 0 -21.5 4t-5.5 21z" />
<glyph unicode="&#xd6;" horiz-adv-x="1226" d="M127 526v406q0 279 121.5 419t363.5 140q487 0 488 -559v-406q0 -279 -123 -419t-365 -140q-485 0 -485 559zM231 541q0 -252 91.5 -368t289.5 -116q199 0 291 116t92 368v377q0 252 -92 367.5t-291 115.5t-290 -116t-91 -367v-377zM366 1683v25q0 63 74 64q74 0 74 -64 v-25q0 -63 -74 -63t-74 63zM712 1683v25q0 63 74 64q74 0 74 -64v-25q0 -63 -74 -63t-74 63z" />
<glyph unicode="&#xd7;" d="M248 360q0 4 12 21l268 303l-268 303q-12 12 -12 21q0 8 12 20l19 19q12 12 20 12t20 -12l267 -299l266 299q12 12 20 12t21 -12l18 -19q12 -12 13 -20q0 -8 -13 -21l-270 -303l270 -303q12 -16 13 -21q0 -8 -13 -20l-18 -18q-12 -12 -21 -13q-8 0 -20 13l-266 299 l-267 -299q-12 -12 -20 -13q-8 0 -20 13l-19 18q-12 12 -12 20z" />
<glyph unicode="&#xd8;" horiz-adv-x="1226" d="M125 -37q0 8 8 23l90 153q-96 139 -96 387v406q0 279 121.5 419t363.5 140q217 0 338 -113l70 119q8 14 12 18.5t10 4.5t19 -7l26 -14q16 -10 17 -18q0 -8 -8 -23l-88 -147q92 -139 92 -379v-406q0 -279 -123 -419t-365 -140q-211 0 -329 105l-74 -125q-8 -14 -12 -18.5 t-11 -4.5q-6 0 -18 6l-27 15q-16 10 -16 18zM231 541q0 -96 11.5 -170t38.5 -131l618 1050q-92 111 -287 111q-199 0 -290 -116t-91 -367v-377zM334 158q92 -101 278 -101q199 0 291 116t92 368v377q0 90 -11 162.5t-36 127.5z" />
<glyph unicode="&#xd9;" horiz-adv-x="1228" d="M150 465v965q0 29 28 28h45q29 0 29 -28v-969q0 -199 88 -301.5t258 -102.5h33q170 0 258 102.5t88 301.5v969q0 29 29 28h45q29 0 28 -28v-965q0 -244 -114.5 -371t-337.5 -127h-25q-453 0 -452 498zM389 1810q0 16 20 17h60q25 0 36 -19l160 -192q8 -10 8 -21 q0 -14 -20 -14h-39q-14 0 -20.5 4t-16.5 14l-178 193q-10 10 -10 18z" />
<glyph unicode="&#xda;" horiz-adv-x="1228" d="M150 465v965q0 29 28 28h45q29 0 29 -28v-969q0 -199 88 -301.5t258 -102.5h33q170 0 258 102.5t88 301.5v969q0 29 29 28h45q29 0 28 -28v-965q0 -244 -114.5 -371t-337.5 -127h-25q-453 0 -452 498zM555 1595q0 10 8 21l160 192q12 18 36 19h60q20 0 20 -17 q0 -8 -10 -18l-178 -193q-10 -10 -16.5 -14t-20.5 -4h-39q-20 0 -20 14z" />
<glyph unicode="&#xdb;" horiz-adv-x="1228" d="M150 465v965q0 29 28 28h45q29 0 29 -28v-969q0 -199 88 -301.5t258 -102.5h33q170 0 258 102.5t88 301.5v969q0 29 29 28h45q29 0 28 -28v-965q0 -244 -114.5 -371t-337.5 -127h-25q-453 0 -452 498zM360 1597q0 10 12 23l172 188q10 12 17.5 15.5t19.5 3.5h66 q12 0 19 -3t18 -16l172 -188q12 -12 12 -23q0 -16 -21 -16h-47q-16 0 -36 18l-150 150l-150 -150q-20 -18 -36 -18h-47q-20 0 -21 16z" />
<glyph unicode="&#xdc;" horiz-adv-x="1228" d="M150 465v965q0 29 28 28h45q29 0 29 -28v-969q0 -199 88 -301.5t258 -102.5h33q170 0 258 102.5t88 301.5v969q0 29 29 28h45q29 0 28 -28v-965q0 -244 -114.5 -371t-337.5 -127h-25q-453 0 -452 498zM368 1683v25q0 63 74 64q74 0 74 -64v-25q0 -63 -74 -63t-74 63z M714 1683v25q0 63 74 64q74 0 74 -64v-25q0 -63 -74 -63t-74 63z" />
<glyph unicode="&#xdd;" horiz-adv-x="1097" d="M43 1442q0 16 20 16h62q12 0 17 -4t14 -20l395 -777l395 777q8 16 14.5 20t16.5 4h57q20 0 21 -16q0 -4 -2 -10.5t-13 -24.5l-440 -860v-518q0 -29 -29 -29h-45q-29 0 -28 29v516l-441 862q-10 18 -12 24.5t-2 10.5zM490 1595q0 10 8 21l160 192q12 18 36 19h60 q20 0 20 -17q0 -8 -10 -18l-178 -193q-10 -10 -16.5 -14t-20.5 -4h-39q-20 0 -20 14z" />
<glyph unicode="&#xde;" horiz-adv-x="1130" d="M162 29v1401q0 29 28 28h46q29 0 28 -28v-256h324q438 0 438 -412v-35q0 -205 -110.5 -309.5t-327.5 -104.5h-324v-284q0 -29 -28 -29h-46q-29 0 -28 29zM264 403h314q180 0 263 77t83 247v35q0 168 -82 244.5t-264 76.5h-314v-680z" />
<glyph unicode="&#xdf;" horiz-adv-x="1036" d="M145 29v1038q0 205 101.5 312.5t294.5 107.5q188 0 285.5 -89t97.5 -259q0 -252 -195 -320q115 -23 175.5 -119t60.5 -256v-26q0 -213 -97.5 -315.5t-298.5 -102.5h-110q-29 0 -29 29v28q0 29 29 29h114q150 0 219.5 79t69.5 253v28q0 170 -69.5 247t-223.5 77h-37 q-29 0 -28 29v28q0 29 28 29h23q266 0 266 283q0 262 -282 262q-152 0 -222.5 -80t-70.5 -252v-1040q0 -29 -29 -29h-43q-29 0 -29 29z" />
<glyph unicode="&#xe0;" horiz-adv-x="999" d="M92 297q0 174 100.5 253t317.5 79q59 0 131 -7.5t135 -17.5v164q0 117 -63.5 170t-202.5 53q-57 0 -98 -7t-72 -24.5t-55.5 -47t-46.5 -74.5q-8 -16 -14.5 -20.5t-18.5 -4.5h-37q-29 0 -29 25q0 29 22.5 70.5t51.5 70.5q55 53 125 77.5t168 24.5q371 0 371 -315v-418 q0 -197 -91.5 -282.5t-298.5 -85.5h-16q-201 0 -290 74.5t-89 242.5zM193 301q0 -125 64.5 -180t211.5 -55h16q160 0 225.5 62t65.5 214v176q-76 12 -147.5 18.5t-126.5 6.5q-166 0 -237.5 -56.5t-71.5 -185.5zM315 1479q0 16 21 16h55q25 0 37 -18l147 -234q6 -10 7 -18 q0 -16 -19 -17h-35q-25 0 -37 19l-167 233q-8 14 -9 19z" />
<glyph unicode="&#xe1;" horiz-adv-x="999" d="M92 297q0 174 100.5 253t317.5 79q59 0 131 -7.5t135 -17.5v164q0 117 -63.5 170t-202.5 53q-57 0 -98 -7t-72 -24.5t-55.5 -47t-46.5 -74.5q-8 -16 -14.5 -20.5t-18.5 -4.5h-37q-29 0 -29 25q0 29 22.5 70.5t51.5 70.5q55 53 125 77.5t168 24.5q371 0 371 -315v-418 q0 -197 -91.5 -282.5t-298.5 -85.5h-16q-201 0 -290 74.5t-89 242.5zM193 301q0 -125 64.5 -180t211.5 -55h16q160 0 225.5 62t65.5 214v176q-76 12 -147.5 18.5t-126.5 6.5q-166 0 -237.5 -56.5t-71.5 -185.5zM446 1225q0 8 7 18l147 234q12 18 37 18h55q20 0 21 -16 q0 -6 -9 -19l-167 -233q-12 -18 -37 -19h-35q-18 0 -19 17z" />
<glyph unicode="&#xe2;" horiz-adv-x="999" d="M92 297q0 174 100.5 253t317.5 79q59 0 131 -7.5t135 -17.5v164q0 117 -63.5 170t-202.5 53q-57 0 -98 -7t-72 -24.5t-55.5 -47t-46.5 -74.5q-8 -16 -14.5 -20.5t-18.5 -4.5h-37q-29 0 -29 25q0 29 22.5 70.5t51.5 70.5q55 53 125 77.5t168 24.5q371 0 371 -315v-418 q0 -197 -91.5 -282.5t-298.5 -85.5h-16q-201 0 -290 74.5t-89 242.5zM193 301q0 -125 64.5 -180t211.5 -55h16q160 0 225.5 62t65.5 214v176q-76 12 -147.5 18.5t-126.5 6.5q-166 0 -237.5 -56.5t-71.5 -185.5zM260 1225q0 8 12 24l179 228q12 18 36 18h54q25 0 36 -18 l179 -228q12 -16 12 -24q0 -16 -21 -17h-38q-20 0 -37 19l-158 186l-158 -186q-16 -18 -37 -19h-38q-20 0 -21 17z" />
<glyph unicode="&#xe3;" horiz-adv-x="999" d="M92 297q0 174 100.5 253t317.5 79q59 0 131 -7.5t135 -17.5v164q0 117 -63.5 170t-202.5 53q-57 0 -98 -7t-72 -24.5t-55.5 -47t-46.5 -74.5q-8 -16 -14.5 -20.5t-18.5 -4.5h-37q-29 0 -29 25q0 29 22.5 70.5t51.5 70.5q55 53 125 77.5t168 24.5q371 0 371 -315v-418 q0 -197 -91.5 -282.5t-298.5 -85.5h-16q-201 0 -290 74.5t-89 242.5zM193 301q0 -125 64.5 -180t211.5 -55h16q160 0 225.5 62t65.5 214v176q-76 12 -147.5 18.5t-126.5 6.5q-166 0 -237.5 -56.5t-71.5 -185.5zM235 1253v11q0 92 36 141t104 49q57 0 133 -61l53 -43 q33 -27 51.5 -37t34.5 -10q33 0 47.5 25.5t14.5 84.5v10q0 16 5 20.5t21 4.5h31q16 0 21.5 -4t5.5 -21v-10q0 -92 -36 -141t-104 -49q-57 0 -133 61l-53 43q-33 27 -51.5 37t-34.5 10q-33 0 -47.5 -25.5t-14.5 -84.5v-11q0 -16 -5 -20t-21 -4h-31q-16 0 -21.5 4t-5.5 20z " />
<glyph unicode="&#xe4;" horiz-adv-x="999" d="M92 297q0 174 100.5 253t317.5 79q59 0 131 -7.5t135 -17.5v164q0 117 -63.5 170t-202.5 53q-57 0 -98 -7t-72 -24.5t-55.5 -47t-46.5 -74.5q-8 -16 -14.5 -20.5t-18.5 -4.5h-37q-29 0 -29 25q0 29 22.5 70.5t51.5 70.5q55 53 125 77.5t168 24.5q371 0 371 -315v-418 q0 -197 -91.5 -282.5t-298.5 -85.5h-16q-201 0 -290 74.5t-89 242.5zM193 301q0 -125 64.5 -180t211.5 -55h16q160 0 225.5 62t65.5 214v176q-76 12 -147.5 18.5t-126.5 6.5q-166 0 -237.5 -56.5t-71.5 -185.5zM285 1362v24q0 29 18 45.5t53 16.5q33 0 52.5 -16.5 t19.5 -45.5v-24q0 -29 -19.5 -45.5t-52.5 -16.5q-35 0 -53 16.5t-18 45.5zM602 1362v24q0 29 19.5 45.5t52.5 16.5q35 0 53 -16.5t18 -45.5v-24q0 -29 -18 -45.5t-53 -16.5q-33 0 -52.5 16.5t-19.5 45.5z" />
<glyph unicode="&#xe5;" horiz-adv-x="999" d="M92 297q0 174 100.5 253t317.5 79q59 0 131 -7.5t135 -17.5v164q0 117 -63.5 170t-202.5 53q-57 0 -98 -7t-72 -24.5t-55.5 -47t-46.5 -74.5q-8 -16 -14.5 -20.5t-18.5 -4.5h-37q-29 0 -29 25q0 29 22.5 70.5t51.5 70.5q55 53 125 77.5t168 24.5q371 0 371 -315v-418 q0 -197 -91.5 -282.5t-298.5 -85.5h-16q-201 0 -290 74.5t-89 242.5zM193 301q0 -125 64.5 -180t211.5 -55h16q160 0 225.5 62t65.5 214v176q-76 12 -147.5 18.5t-126.5 6.5q-166 0 -237.5 -56.5t-71.5 -185.5zM303 1391q0 92 59.5 148t151.5 56q96 0 153.5 -56t57.5 -148 t-57.5 -147.5t-153.5 -55.5t-153.5 55.5t-57.5 147.5zM391 1391q0 -59 32 -90t91 -31t91 30.5t32 90.5q0 55 -34 88.5t-89 33.5q-57 0 -90 -32.5t-33 -89.5z" />
<glyph unicode="&#xe6;" horiz-adv-x="1705" d="M92 297q0 174 100.5 253t317.5 79q59 0 131 -7.5t135 -17.5v164q0 117 -63.5 170t-202.5 53q-57 0 -98 -7t-72 -24.5t-55.5 -47t-46.5 -74.5q-8 -16 -14.5 -20.5t-18.5 -4.5h-37q-29 0 -29 25q0 29 21.5 69.5t54.5 73.5q55 53 123 76.5t168 23.5q283 0 340 -192 q102 193 354 192q193 0 293 -114.5t100 -335.5v-101q0 -29 -28 -28h-688v-64q0 -381 317 -381q104 0 172 39t107 127q4 10 9 17.5t23 7.5h37q29 0 29 -25q0 -27 -24.5 -72t-55.5 -75q-47 -49 -126 -77t-175 -28q-258 0 -354 195q-35 -98 -118 -142t-231 -44h-16 q-201 0 -290 74.5t-89 242.5zM193 301q0 -125 64.5 -180t211.5 -55h16q160 0 225.5 62t65.5 214v176q-76 12 -147.5 18.5t-126.5 6.5q-166 0 -237.5 -56.5t-71.5 -185.5zM877 586h620v41q0 370 -301 370q-319 0 -319 -399v-12z" />
<glyph unicode="&#xe7;" horiz-adv-x="1007" d="M113 426v201q0 217 106.5 335.5t304.5 118.5q90 0 168 -28.5t125 -77.5q35 -39 55.5 -87t20.5 -95q0 -29 -29 -29h-37q-18 0 -23 4t-9 25q-51 203 -271 202q-309 0 -309 -381v-176q0 -188 76.5 -284.5t228.5 -96.5q113 0 184.5 52.5t92.5 150.5q4 20 9 24.5t23 4.5h37 q29 0 29 -27q0 -45 -22.5 -96t-57.5 -86q-53 -53 -130 -81t-171 -28q-199 0 -300 116t-101 339zM258 -295q0 16 5 20.5t22 4.5h147q96 0 96 88q0 14 -3 33.5t-7 48.5l-31 135h90l27 -121q6 -31 10 -58.5t4 -43.5q0 -166 -188 -166h-145q-16 0 -21.5 4t-5.5 20v35z" />
<glyph unicode="&#xe8;" horiz-adv-x="1042" d="M113 426v180q0 231 108.5 353t313.5 122q195 0 295 -113.5t100 -336.5v-101q0 -29 -29 -28h-688v-64q0 -381 317 -381q109 0 173.5 39t105.5 127q8 16 14 20.5t19 4.5h37q29 0 28 -25q0 -27 -23.5 -70.5t-54.5 -74.5q-49 -51 -127.5 -79t-177.5 -28q-203 0 -307 116 t-104 339zM213 586h621v41q-1 370 -302 370q-319 0 -319 -399v-12zM336 1479q0 16 21 16h55q25 0 37 -18l147 -234q6 -10 7 -18q0 -16 -19 -17h-35q-25 0 -37 19l-167 233q-8 14 -9 19z" />
<glyph unicode="&#xe9;" horiz-adv-x="1042" d="M113 426v180q0 231 108.5 353t313.5 122q195 0 295 -113.5t100 -336.5v-101q0 -29 -29 -28h-688v-64q0 -381 317 -381q109 0 173.5 39t105.5 127q8 16 14 20.5t19 4.5h37q29 0 28 -25q0 -27 -23.5 -70.5t-54.5 -74.5q-49 -51 -127.5 -79t-177.5 -28q-203 0 -307 116 t-104 339zM213 586h621v41q-1 370 -302 370q-319 0 -319 -399v-12zM467 1225q0 8 7 18l147 234q12 18 37 18h55q20 0 21 -16q0 -6 -9 -19l-167 -233q-12 -18 -37 -19h-35q-18 0 -19 17z" />
<glyph unicode="&#xea;" horiz-adv-x="1042" d="M113 426v180q0 231 108.5 353t313.5 122q195 0 295 -113.5t100 -336.5v-101q0 -29 -29 -28h-688v-64q0 -381 317 -381q109 0 173.5 39t105.5 127q8 16 14 20.5t19 4.5h37q29 0 28 -25q0 -27 -23.5 -70.5t-54.5 -74.5q-49 -51 -127.5 -79t-177.5 -28q-203 0 -307 116 t-104 339zM213 586h621v41q-1 370 -302 370q-319 0 -319 -399v-12zM281 1225q0 8 12 24l179 228q12 18 36 18h54q25 0 36 -18l179 -228q12 -16 12 -24q0 -16 -21 -17h-38q-20 0 -37 19l-158 186l-158 -186q-16 -18 -37 -19h-38q-20 0 -21 17z" />
<glyph unicode="&#xeb;" horiz-adv-x="1042" d="M113 426v180q0 231 108.5 353t313.5 122q195 0 295 -113.5t100 -336.5v-101q0 -29 -29 -28h-688v-64q0 -381 317 -381q109 0 173.5 39t105.5 127q8 16 14 20.5t19 4.5h37q29 0 28 -25q0 -27 -23.5 -70.5t-54.5 -74.5q-49 -51 -127.5 -79t-177.5 -28q-203 0 -307 116 t-104 339zM213 586h621v41q-1 370 -302 370q-319 0 -319 -399v-12zM306 1362v24q0 29 18 45.5t53 16.5q33 0 52.5 -16.5t19.5 -45.5v-24q0 -29 -19.5 -45.5t-52.5 -16.5q-35 0 -53 16.5t-18 45.5zM623 1362v24q0 29 19.5 45.5t52.5 16.5q35 0 53 -16.5t18 -45.5v-24 q0 -29 -18 -45.5t-53 -16.5q-33 0 -52.5 16.5t-19.5 45.5z" />
<glyph unicode="&#xec;" horiz-adv-x="395" d="M-2 1479q0 16 21 16h55q25 0 37 -18l147 -234q6 -10 7 -18q0 -16 -19 -17h-35q-25 0 -37 19l-167 233q-8 14 -9 19zM147 29v995q0 29 29 29h43q29 0 29 -29v-995q0 -29 -29 -29h-43q-29 0 -29 29z" />
<glyph unicode="&#xed;" horiz-adv-x="395" d="M129 1225q0 8 7 18l147 234q12 18 37 18h55q20 0 21 -16q0 -6 -9 -19l-167 -233q-12 -18 -37 -19h-35q-18 0 -19 17zM147 29v995q0 29 29 29h43q29 0 29 -29v-995q0 -29 -29 -29h-43q-29 0 -29 29z" />
<glyph unicode="&#xee;" horiz-adv-x="395" d="M-57 1225q0 8 12 24l179 228q12 18 36 18h54q25 0 36 -18l179 -228q12 -16 12 -24q0 -16 -21 -17h-38q-20 0 -37 19l-158 186l-158 -186q-16 -18 -37 -19h-38q-20 0 -21 17zM147 29v995q0 29 29 29h43q29 0 29 -29v-995q0 -29 -29 -29h-43q-29 0 -29 29z" />
<glyph unicode="&#xef;" horiz-adv-x="395" d="M-32 1362v24q0 29 18 45.5t53 16.5q33 0 52.5 -16.5t19.5 -45.5v-24q0 -29 -19.5 -45.5t-52.5 -16.5q-35 0 -53 16.5t-18 45.5zM147 29v995q0 29 29 29h43q29 0 29 -29v-995q0 -29 -29 -29h-43q-29 0 -29 29zM285 1362v24q0 29 19.5 45.5t52.5 16.5q35 0 53 -16.5 t18 -45.5v-24q0 -29 -18 -45.5t-53 -16.5q-33 0 -52.5 16.5t-19.5 45.5z" />
<glyph unicode="&#xf0;" horiz-adv-x="1093" d="M113 426v178q0 236 106.5 356.5t310.5 120.5q123 0 205 -44t117 -126q-10 117 -47 197t-113 145l-123 -86q-10 -8 -15 -10t-9 -2q-12 0 -21 14l-12 19q-10 12 -10 20q0 10 14 19l113 80q-57 41 -119 73q-20 12 -21 23q0 6 7 16l14 25q12 20 20 20q6 0 21 -8 q43 -23 82 -48.5t72 -47.5l116 82q10 8 15.5 10t9.5 2q12 0 20 -14l13 -19q10 -12 10 -20q0 -10 -15 -19l-106 -75q98 -90 141 -207t43 -297v-379q0 -221 -108.5 -337t-315.5 -116q-205 0 -310 116t-105 339zM215 436q0 -379 317 -379q319 0 320 379v176q0 379 -320 379 q-317 0 -317 -379v-176z" />
<glyph unicode="&#xf1;" horiz-adv-x="1073" d="M147 29v995q0 29 29 29h41q29 0 29 -29v-121q37 84 127 131t209 47q172 0 261 -94t89 -274v-684q0 -29 -29 -29h-43q-29 0 -29 29v667q0 295 -262 295q-154 0 -237.5 -90t-83.5 -256v-616q0 -29 -29 -29h-43q-29 0 -29 29zM270 1253v11q0 92 36 141t104 49q57 0 133 -61 l53 -43q33 -27 51.5 -37t34.5 -10q33 0 47.5 25.5t14.5 84.5v10q0 16 5 20.5t21 4.5h31q16 0 21.5 -4t5.5 -21v-10q0 -92 -36 -141t-104 -49q-57 0 -133 61l-53 43q-33 27 -51.5 37t-34.5 10q-33 0 -47.5 -25.5t-14.5 -84.5v-11q0 -16 -5 -20t-21 -4h-31q-16 0 -21.5 4 t-5.5 20z" />
<glyph unicode="&#xf2;" horiz-adv-x="1064" d="M113 426v201q0 221 108.5 337.5t315.5 116.5q205 0 310 -115.5t105 -338.5v-201q0 -221 -108.5 -338t-315.5 -117q-205 0 -310 116t-105 339zM215 436q0 -379 317 -379t318 379v180q0 379 -318 379q-317 0 -317 -379v-180zM333 1479q0 16 21 16h55q25 0 37 -18l147 -234 q6 -10 7 -18q0 -16 -19 -17h-35q-25 0 -37 19l-167 233q-8 14 -9 19z" />
<glyph unicode="&#xf3;" horiz-adv-x="1064" d="M113 426v201q0 221 108.5 337.5t315.5 116.5q205 0 310 -115.5t105 -338.5v-201q0 -221 -108.5 -338t-315.5 -117q-205 0 -310 116t-105 339zM215 436q0 -379 317 -379t318 379v180q0 379 -318 379q-317 0 -317 -379v-180zM464 1225q0 8 7 18l147 234q12 18 37 18h55 q20 0 21 -16q0 -6 -9 -19l-167 -233q-12 -18 -37 -19h-35q-18 0 -19 17z" />
<glyph unicode="&#xf4;" horiz-adv-x="1064" d="M113 426v201q0 221 108.5 337.5t315.5 116.5q205 0 310 -115.5t105 -338.5v-201q0 -221 -108.5 -338t-315.5 -117q-205 0 -310 116t-105 339zM215 436q0 -379 317 -379t318 379v180q0 379 -318 379q-317 0 -317 -379v-180zM278 1225q0 8 12 24l179 228q12 18 36 18h54 q25 0 36 -18l179 -228q12 -16 12 -24q0 -16 -21 -17h-38q-20 0 -37 19l-158 186l-158 -186q-16 -18 -37 -19h-38q-20 0 -21 17z" />
<glyph unicode="&#xf5;" horiz-adv-x="1064" d="M113 426v201q0 221 108.5 337.5t315.5 116.5q205 0 310 -115.5t105 -338.5v-201q0 -221 -108.5 -338t-315.5 -117q-205 0 -310 116t-105 339zM215 436q0 -379 317 -379t318 379v180q0 379 -318 379q-317 0 -317 -379v-180zM253 1253v11q0 92 36 141t104 49q57 0 133 -61 l53 -43q33 -27 51.5 -37t34.5 -10q33 0 47.5 25.5t14.5 84.5v10q0 16 5 20.5t21 4.5h31q16 0 21.5 -4t5.5 -21v-10q0 -92 -36 -141t-104 -49q-57 0 -133 61l-53 43q-33 27 -51.5 37t-34.5 10q-33 0 -47.5 -25.5t-14.5 -84.5v-11q0 -16 -5 -20t-21 -4h-31q-16 0 -21.5 4 t-5.5 20z" />
<glyph unicode="&#xf6;" horiz-adv-x="1064" d="M113 426v201q0 221 108.5 337.5t315.5 116.5q205 0 310 -115.5t105 -338.5v-201q0 -221 -108.5 -338t-315.5 -117q-205 0 -310 116t-105 339zM215 436q0 -379 317 -379t318 379v180q0 379 -318 379q-317 0 -317 -379v-180zM303 1362v24q0 29 18 45.5t53 16.5 q33 0 52.5 -16.5t19.5 -45.5v-24q0 -29 -19.5 -45.5t-52.5 -16.5q-35 0 -53 16.5t-18 45.5zM620 1362v24q0 29 19.5 45.5t52.5 16.5q35 0 53 -16.5t18 -45.5v-24q0 -29 -18 -45.5t-53 -16.5q-33 0 -52.5 16.5t-19.5 45.5z" />
<glyph unicode="&#xf7;" d="M197 678v24q0 29 28 29h717q29 0 29 -29v-24q0 -29 -29 -29h-717q-29 0 -28 29zM518 328v26q0 33 17.5 52.5t48.5 19.5q33 0 50 -19.5t17 -52.5v-26q0 -33 -17.5 -52.5t-49.5 -19.5q-31 0 -48.5 19.5t-17.5 52.5zM518 1026v27q0 33 17.5 52t48.5 19q33 0 50 -19.5 t17 -51.5v-27q0 -33 -17.5 -52.5t-49.5 -19.5q-31 0 -48.5 19.5t-17.5 52.5z" />
<glyph unicode="&#xf8;" horiz-adv-x="1064" d="M111 -45q0 6 10 20l86 127q-94 119 -94 324v201q0 221 108.5 337.5t315.5 116.5q164 0 268 -80l67 103q8 16 21 16q8 0 18 -8l25 -16q16 -8 16 -21q0 -8 -10 -20l-78 -115q88 -115 88 -313v-201q0 -221 -108.5 -338t-315.5 -117q-158 0 -260 72l-78 -117q-10 -16 -20 -16 q-6 0 -18 8l-25 16q-16 10 -16 21zM215 436q0 -154 49 -246l488 732q-79 73 -220 73q-317 0 -317 -379v-180zM322 123q77 -66 210 -66q317 0 318 379v180q0 150 -45 234z" />
<glyph unicode="&#xf9;" horiz-adv-x="1052" d="M141 340v684q0 29 29 29h43q29 0 29 -29v-668q0 -295 254 -295q147 0 228 90.5t81 256.5v616q0 29 29 29h43q29 0 28 -29v-995q0 -29 -28 -29h-41q-29 0 -29 29v121q-35 -84 -122 -131.5t-204 -47.5q-166 0 -253 94.5t-87 274.5zM323 1479q0 16 21 16h55q25 0 37 -18 l147 -234q6 -10 7 -18q0 -16 -19 -17h-35q-25 0 -37 19l-167 233q-8 14 -9 19z" />
<glyph unicode="&#xfa;" horiz-adv-x="1052" d="M141 340v684q0 29 29 29h43q29 0 29 -29v-668q0 -295 254 -295q147 0 228 90.5t81 256.5v616q0 29 29 29h43q29 0 28 -29v-995q0 -29 -28 -29h-41q-29 0 -29 29v121q-35 -84 -122 -131.5t-204 -47.5q-166 0 -253 94.5t-87 274.5zM454 1225q0 8 7 18l147 234q12 18 37 18 h55q20 0 21 -16q0 -6 -9 -19l-167 -233q-12 -18 -37 -19h-35q-18 0 -19 17z" />
<glyph unicode="&#xfb;" horiz-adv-x="1052" d="M141 340v684q0 29 29 29h43q29 0 29 -29v-668q0 -295 254 -295q147 0 228 90.5t81 256.5v616q0 29 29 29h43q29 0 28 -29v-995q0 -29 -28 -29h-41q-29 0 -29 29v121q-35 -84 -122 -131.5t-204 -47.5q-166 0 -253 94.5t-87 274.5zM268 1225q0 8 12 24l179 228q12 18 36 18 h54q25 0 36 -18l179 -228q12 -16 12 -24q0 -16 -21 -17h-38q-20 0 -37 19l-158 186l-158 -186q-16 -18 -37 -19h-38q-20 0 -21 17z" />
<glyph unicode="&#xfc;" horiz-adv-x="1052" d="M141 340v684q0 29 29 29h43q29 0 29 -29v-668q0 -295 254 -295q147 0 228 90.5t81 256.5v616q0 29 29 29h43q29 0 28 -29v-995q0 -29 -28 -29h-41q-29 0 -29 29v121q-35 -84 -122 -131.5t-204 -47.5q-166 0 -253 94.5t-87 274.5zM293 1362v24q0 29 18 45.5t53 16.5 q33 0 52.5 -16.5t19.5 -45.5v-24q0 -29 -19.5 -45.5t-52.5 -16.5q-35 0 -53 16.5t-18 45.5zM610 1362v24q0 29 19.5 45.5t52.5 16.5q35 0 53 -16.5t18 -45.5v-24q0 -29 -18 -45.5t-53 -16.5q-33 0 -52.5 16.5t-19.5 45.5z" />
<glyph unicode="&#xfd;" horiz-adv-x="907" d="M33 1034q0 18 20 19h53q23 0 31 -25l326 -874l311 874q8 25 31 25h49q20 0 20 -19q0 -8 -8 -30l-397 -1104q-27 -74 -52.5 -122t-56 -77t-70.5 -40t-93 -11h-52q-29 0 -28 28v29q0 29 28 29h45q37 0 65 9t49.5 31.5t39.5 60.5t39 97l31 91l-373 979q-8 23 -8 30z M385 1225q0 8 7 18l147 234q12 18 37 18h55q20 0 21 -16q0 -6 -9 -19l-167 -233q-12 -18 -37 -19h-35q-18 0 -19 17z" />
<glyph unicode="&#xfe;" horiz-adv-x="1099" d="M147 -322v1752q0 29 29 28h43q29 0 29 -28v-519q35 82 120 126t207 44q201 0 306.5 -115.5t105.5 -338.5v-178q0 -236 -106.5 -357t-311.5 -121q-250 0 -321 170v-463q0 -29 -29 -28h-43q-29 0 -29 28zM248 436q0 -375 319 -375q317 0 318 375v176q0 383 -318 383 q-319 0 -319 -383v-176z" />
<glyph unicode="&#xff;" horiz-adv-x="907" d="M33 1034q0 18 20 19h53q23 0 31 -25l326 -874l311 874q8 25 31 25h49q20 0 20 -19q0 -8 -8 -30l-397 -1104q-27 -74 -52.5 -122t-56 -77t-70.5 -40t-93 -11h-52q-29 0 -28 28v29q0 29 28 29h45q37 0 65 9t49.5 31.5t39.5 60.5t39 97l31 91l-373 979q-8 23 -8 30z M224 1362v24q0 29 18 45.5t53 16.5q33 0 52.5 -16.5t19.5 -45.5v-24q0 -29 -19.5 -45.5t-52.5 -16.5q-35 0 -53 16.5t-18 45.5zM541 1362v24q0 29 19.5 45.5t52.5 16.5q35 0 53 -16.5t18 -45.5v-24q0 -29 -18 -45.5t-53 -16.5q-33 0 -52.5 16.5t-19.5 45.5z" />
<glyph unicode="&#x152;" horiz-adv-x="1888" d="M127 537v385q0 264 129 400t379 136h1085q29 0 29 -28v-33q0 -29 -29 -29h-663v-573h618q29 0 29 -29v-33q0 -29 -29 -28h-618v-615h678q29 0 28 -29v-32q0 -29 -28 -29h-1100q-508 0 -508 537zM231 551q0 -240 96.5 -350.5t307.5 -110.5h319v1278h-319 q-207 0 -305.5 -112.5t-98.5 -348.5v-356z" />
<glyph unicode="&#x153;" horiz-adv-x="1781" d="M113 426v201q0 219 109.5 336.5t314.5 117.5q276 0 366 -229q96 229 373 229q193 0 293 -114.5t100 -335.5v-101q0 -29 -29 -28h-688v-64q0 -381 318 -381q104 0 171.5 39t106.5 127q4 10 9.5 17.5t23.5 7.5h37q29 0 29 -25q0 -27 -25 -72t-55 -75q-47 -49 -126 -77 t-175 -28q-276 0 -367 224q-47 -111 -141 -167.5t-230 -56.5q-203 0 -309 117t-106 338zM215 436q0 -379 317 -379t318 379v180q-1 379 -318 379t-317 -379v-180zM952 586h621v41q0 370 -301 370q-319 0 -320 -399v-12z" />
<glyph unicode="&#x178;" horiz-adv-x="1097" d="M43 1442q0 16 20 16h62q12 0 17 -4t14 -20l395 -777l395 777q8 16 14.5 20t16.5 4h57q20 0 21 -16q0 -4 -2 -10.5t-13 -24.5l-440 -860v-518q0 -29 -29 -29h-45q-29 0 -28 29v516l-441 862q-10 18 -12 24.5t-2 10.5zM303 1683v25q0 63 74 64q74 0 74 -64v-25 q0 -63 -74 -63t-74 63zM649 1683v25q0 63 74 64q74 0 74 -64v-25q0 -63 -74 -63t-74 63z" />
<glyph unicode="&#x2c6;" horiz-adv-x="1024" d="M258 1225q0 8 12 24l179 228q12 18 36 18h54q25 0 36 -18l179 -228q12 -16 12 -24q0 -16 -21 -17h-38q-20 0 -37 19l-158 186l-158 -186q-16 -18 -37 -19h-38q-20 0 -21 17z" />
<glyph unicode="&#x2dc;" horiz-adv-x="1024" d="M233 1253v11q0 92 36 141t104 49q57 0 133 -61l53 -43q33 -27 51.5 -37t34.5 -10q33 0 47.5 25.5t14.5 84.5v10q0 16 5 20.5t21 4.5h31q16 0 21.5 -4t5.5 -21v-10q0 -92 -36 -141t-104 -49q-57 0 -133 61l-53 43q-33 27 -51.5 37t-34.5 10q-33 0 -47.5 -25.5t-14.5 -84.5 v-11q0 -16 -5 -20t-21 -4h-31q-16 0 -21.5 4t-5.5 20z" />
<glyph unicode="&#x2000;" horiz-adv-x="913" />
<glyph unicode="&#x2001;" horiz-adv-x="1827" />
<glyph unicode="&#x2002;" horiz-adv-x="913" />
<glyph unicode="&#x2003;" horiz-adv-x="1827" />
<glyph unicode="&#x2004;" horiz-adv-x="609" />
<glyph unicode="&#x2005;" horiz-adv-x="456" />
<glyph unicode="&#x2006;" horiz-adv-x="304" />
<glyph unicode="&#x2007;" horiz-adv-x="304" />
<glyph unicode="&#x2008;" horiz-adv-x="228" />
<glyph unicode="&#x2009;" horiz-adv-x="365" />
<glyph unicode="&#x200a;" horiz-adv-x="101" />
<glyph unicode="&#x2010;" horiz-adv-x="712" d="M72 537v32q0 29 28 29h512q29 0 29 -29v-32q0 -29 -29 -29h-512q-29 0 -28 29z" />
<glyph unicode="&#x2011;" horiz-adv-x="712" d="M72 537v32q0 29 28 29h512q29 0 29 -29v-32q0 -29 -29 -29h-512q-29 0 -28 29z" />
<glyph unicode="&#x2012;" horiz-adv-x="712" d="M72 537v32q0 29 28 29h512q29 0 29 -29v-32q0 -29 -29 -29h-512q-29 0 -28 29z" />
<glyph unicode="&#x2013;" horiz-adv-x="1024" d="M0 541v24q0 29 29 29h966q29 0 29 -29v-24q0 -29 -29 -29h-966q-29 0 -29 29z" />
<glyph unicode="&#x2014;" horiz-adv-x="2048" d="M0 541v24q0 29 29 29h1990q29 0 29 -29v-24q0 -29 -29 -29h-1990q-29 0 -29 29z" />
<glyph unicode="&#x2018;" horiz-adv-x="389" d="M90 1114v16q0 29 14.5 65t30.5 71l96 198q6 10 10.5 14.5t18.5 4.5h37q18 0 18 -13q0 -6 -8 -24l-102 -246q59 -10 59 -74v-22q0 -35 -22.5 -54.5t-63.5 -19.5q-88 0 -88 84z" />
<glyph unicode="&#x2019;" horiz-adv-x="389" d="M74 1042q0 6 8 25l102 246q-59 10 -59 73v23q0 35 22.5 54.5t63.5 19.5q88 0 88 -84v-17q0 -29 -14.5 -64.5t-30.5 -70.5l-96 -198q-6 -10 -10.5 -14.5t-18.5 -4.5h-37q-18 0 -18 12z" />
<glyph unicode="&#x201a;" horiz-adv-x="389" d="M74 -268q0 6 8 24l102 246q-59 10 -59 74v22q0 35 22.5 54.5t63.5 19.5q88 0 88 -84v-16q0 -39 -45 -135l-96 -199q-8 -12 -12.5 -15.5t-16.5 -3.5h-37q-18 0 -18 13z" />
<glyph unicode="&#x201c;" horiz-adv-x="669" d="M90 1114v16q0 29 14.5 65t30.5 71l96 198q6 10 10.5 14.5t18.5 4.5h37q18 0 18 -13q0 -6 -8 -24l-102 -246q59 -10 59 -74v-22q0 -35 -22.5 -54.5t-63.5 -19.5q-88 0 -88 84zM371 1114v16q0 29 14.5 65t30.5 71l96 198q6 10 10.5 14.5t18.5 4.5h37q18 0 18 -13 q0 -6 -8 -24l-102 -246q59 -10 59 -74v-22q0 -35 -22.5 -54.5t-63.5 -19.5q-88 0 -88 84z" />
<glyph unicode="&#x201d;" horiz-adv-x="669" d="M74 1042q0 6 8 25l102 246q-59 10 -59 73v23q0 35 22.5 54.5t63.5 19.5q88 0 88 -84v-17q0 -29 -14.5 -64.5t-30.5 -70.5l-96 -198q-6 -10 -10.5 -14.5t-18.5 -4.5h-37q-18 0 -18 12zM355 1042q0 6 8 25l102 246q-59 10 -59 73v23q0 35 22.5 54.5t63.5 19.5q88 0 88 -84 v-17q0 -29 -14.5 -64.5t-30.5 -70.5l-96 -198q-6 -10 -10.5 -14.5t-18.5 -4.5h-37q-18 0 -18 12z" />
<glyph unicode="&#x201e;" horiz-adv-x="669" d="M74 -268q0 6 8 24l102 246q-59 10 -59 74v22q0 35 22.5 54.5t63.5 19.5q88 0 88 -84v-16q0 -39 -45 -135l-96 -199q-8 -12 -12.5 -15.5t-16.5 -3.5h-37q-18 0 -18 13zM355 -268q0 6 8 24l102 246q-59 10 -59 74v22q0 35 22.5 54.5t63.5 19.5q88 0 88 -84v-16 q0 -39 -45 -135l-96 -199q-8 -12 -12.5 -15.5t-16.5 -3.5h-37q-18 0 -18 13z" />
<glyph unicode="&#x2022;" horiz-adv-x="794" d="M205 537q0 39 15.5 74.5t41 61t60 41t75.5 15.5q39 0 75 -15.5t61.5 -41t41 -61.5t15.5 -74q0 -41 -15.5 -76t-41 -60.5t-61.5 -41t-75 -15.5q-80 0 -136 56.5t-56 136.5z" />
<glyph unicode="&#x2026;" horiz-adv-x="2048" d="M225 68v26q0 35 24 56.5t65 21.5t64.5 -21.5t23.5 -56.5v-26q0 -35 -23.5 -56.5t-64.5 -21.5t-65 21.5t-24 56.5zM935 68v26q0 35 24 56.5t65 21.5t64.5 -21.5t23.5 -56.5v-26q0 -35 -23.5 -56.5t-64.5 -21.5t-65 21.5t-24 56.5zM1646 68v26q0 35 24 56.5t65 21.5 t64.5 -21.5t23.5 -56.5v-26q0 -35 -23.5 -56.5t-64.5 -21.5t-65 21.5t-24 56.5z" />
<glyph unicode="&#x202f;" horiz-adv-x="365" />
<glyph unicode="&#x2039;" horiz-adv-x="516" d="M41 561v47q0 12 4 19.5t14 17.5l330 340q10 10 21 10q14 0 14 -18v-66q0 -10 -3 -17t-15 -20l-279 -288l279 -287q12 -12 15 -18.5t3 -18.5v-69q0 -18 -14 -19q-10 0 -21 10l-330 340q-18 20 -18 37z" />
<glyph unicode="&#x203a;" horiz-adv-x="516" d="M92 193v65q0 12 4 19.5t15 17.5l278 287l-278 288q-18 20 -19 37v70q0 18 14 18q10 0 21 -10l330 -340q12 -10 15 -17t3 -20v-47q0 -10 -3 -17t-15 -20l-330 -340q-10 -10 -21 -10q-14 0 -14 19z" />
<glyph unicode="&#x205f;" horiz-adv-x="456" />
<glyph unicode="&#x20ac;" d="M55 543v32q0 29 29 29h98v154h-98q-29 0 -29 28v33q0 29 29 29h98v29q0 262 115 395t338 133q279 0 381 -221q16 -33 24.5 -76t8.5 -84q0 -29 -29 -29h-39q-27 0 -29 23q-14 147 -95 222t-222 75q-352 0 -352 -453v-14h422q29 0 28 -29v-33q0 -29 -28 -28h-422v-154h422 q29 0 28 -29v-32q0 -29 -28 -29h-422v-8q0 -229 85 -339t259 -110q145 0 228 76t97 221q2 23 29 23h39q29 0 29 -29q0 -35 -10.5 -79t-26.5 -81q-47 -106 -146.5 -163.5t-238.5 -57.5q-221 0 -333 133t-112 396v18h-98q-29 0 -29 29z" />
<glyph unicode="&#x2122;" horiz-adv-x="1542" d="M61 1405v29q0 16 4.5 20t20.5 4h506q16 0 20 -4t4 -20v-29q0 -16 -4 -20.5t-20 -4.5h-209v-696q0 -16 -4 -20.5t-21 -4.5h-36q-16 0 -21.5 4.5t-5.5 20.5v696h-209q-16 0 -20.5 4.5t-4.5 20.5zM725 684v750q0 16 4 20t21 4h38q23 0 33 -18l242 -457l244 457q10 18 32 18 h35q16 0 20.5 -4t4.5 -20v-750q0 -16 -4 -20.5t-21 -4.5h-35q-16 0 -21 4.5t-5 20.5v608l-211 -383q-10 -18 -29 -18h-20q-25 0 -33 18l-209 383v-608q0 -16 -4 -20.5t-21 -4.5h-34q-16 0 -21.5 4.5t-5.5 20.5z" />
<glyph unicode="&#x25fc;" horiz-adv-x="1054" d="M0 0v1055h1055v-1055h-1055z" />
<glyph unicode="&#xfb01;" horiz-adv-x="970" d="M20 995v29q0 29 29 29h158v121q0 285 285 284h63q29 0 29 -28v-29q0 -29 -29 -29h-61q-100 0 -143.5 -46t-43.5 -155v-118h209q29 0 29 -29v-29q0 -29 -29 -28h-209v-938q0 -29 -28 -29h-43q-29 0 -29 29v938h-158q-29 0 -29 28zM700 1341v25q0 29 20.5 47.5t55.5 18.5 t55 -18.5t20 -47.5v-25q0 -29 -20 -47t-55 -18t-55.5 18.5t-20.5 46.5zM722 29v995q0 29 29 29h43q29 0 29 -29v-995q0 -29 -29 -29h-43q-29 0 -29 29z" />
<glyph unicode="&#xfb02;" horiz-adv-x="974" d="M20 995v29q0 29 29 29h158v121q0 285 285 284h63q29 0 29 -28v-29q0 -29 -29 -29h-61q-100 0 -143.5 -46t-43.5 -155v-118h209q29 0 29 -29v-29q0 -29 -29 -28h-209v-938q0 -29 -28 -29h-43q-29 0 -29 29v938h-158q-29 0 -29 28zM727 29v1401q0 29 29 28h43q29 0 29 -28 v-1401q0 -29 -29 -29h-43q-29 0 -29 29z" />
<glyph unicode="&#xfb03;" horiz-adv-x="1597" d="M20 995v29q0 29 29 29h158v121q0 285 285 284h63q29 0 29 -28v-29q0 -29 -29 -29h-61q-100 0 -143.5 -46t-43.5 -155v-118h209q29 0 29 -29v-29q0 -29 -29 -28h-209v-938q0 -29 -28 -29h-43q-29 0 -29 29v938h-158q-29 0 -29 28zM647 995v29q0 29 29 29h158v121 q0 285 285 284h63q29 0 29 -28v-29q0 -29 -29 -29h-61q-100 0 -143.5 -46t-43.5 -155v-118h209q29 0 29 -29v-29q0 -29 -29 -28h-209v-938q0 -29 -28 -29h-43q-29 0 -29 29v938h-158q-29 0 -29 28zM1327 1341v25q0 29 20.5 47.5t55.5 18.5t55 -18.5t20 -47.5v-25 q0 -29 -20 -47t-55 -18t-55.5 18.5t-20.5 46.5zM1349 29v995q0 29 29 29h43q29 0 29 -29v-995q0 -29 -29 -29h-43q-29 0 -29 29z" />
<glyph unicode="&#xfb04;" horiz-adv-x="1601" d="M20 995v29q0 29 29 29h158v121q0 285 285 284h63q29 0 29 -28v-29q0 -29 -29 -29h-61q-100 0 -143.5 -46t-43.5 -155v-118h209q29 0 29 -29v-29q0 -29 -29 -28h-209v-938q0 -29 -28 -29h-43q-29 0 -29 29v938h-158q-29 0 -29 28zM647 995v29q0 29 29 29h158v121 q0 285 285 284h63q29 0 29 -28v-29q0 -29 -29 -29h-61q-100 0 -143.5 -46t-43.5 -155v-118h209q29 0 29 -29v-29q0 -29 -29 -28h-209v-938q0 -29 -28 -29h-43q-29 0 -29 29v938h-158q-29 0 -29 28zM1353 29v1401q0 29 29 28h43q29 0 29 -28v-1401q0 -29 -29 -29h-43 q-29 0 -29 29z" />
</font>
</defs>
</svg>
