<?xml version="1.0" standalone="no"?>
<!DOCTYPE svg PUBLIC "-//W3C//DTD SVG 1.1//EN" "http://www.w3.org/Graphics/SVG/1.1/DTD/svg11.dtd" >
<svg xmlns="http://www.w3.org/2000/svg" xmlns:xlink="http://www.w3.org/1999/xlink" version="1.1">
<metadata></metadata>
<defs>
<font id="oscinebold" horiz-adv-x="1167" >
<font-face units-per-em="2048" ascent="1458" descent="-590" />
<missing-glyph horiz-adv-x="409" />
<glyph unicode="&#xd;" horiz-adv-x="409" />
<glyph horiz-adv-x="0" />
<glyph horiz-adv-x="0" />
<glyph unicode=" "  horiz-adv-x="409" />
<glyph unicode="&#x09;" horiz-adv-x="409" />
<glyph unicode="&#xa0;" horiz-adv-x="409" />
<glyph unicode="!" horiz-adv-x="614" d="M158 104v50q0 61 41 97t108 36q68 0 109 -36t41 -97v-50q0 -61 -41 -97t-109 -36t-108.5 36t-40.5 97zM172 1399q0 37 13.5 48t52.5 11h143q39 0 52 -11t13 -48q0 -20 -1 -56t-3 -69l-26 -770q-2 -37 -14.5 -48.5t-51.5 -11.5h-82q-39 0 -51 11.5t-14 48.5l-27 770 q-2 33 -3 68.5t-1 56.5z" />
<glyph unicode="&#x22;" horiz-adv-x="817" d="M72 1399q0 37 13 48t52 11h125q39 0 52.5 -11t13.5 -48q0 -4 -1 -28.5t-3 -59.5l-21 -406q-2 -37 -14.5 -48t-50.5 -11h-76q-39 0 -51.5 11t-14.5 48l-20 406q-2 35 -3 59.5t-1 28.5zM490 1399q0 37 13 48t52 11h125q39 0 52.5 -11t13.5 -48q0 -4 -1 -28.5t-3 -59.5 l-21 -406q-2 -37 -14.5 -48t-50.5 -11h-76q-39 0 -51.5 11t-14.5 48l-20 406q-2 35 -3 59.5t-1 28.5z" />
<glyph unicode="#" d="M66 444v68q0 35 9 46t42 11h162v236h-162q-31 0 -41 11t-10 46v68q0 35 9 46t42 11h162v230q0 31 11 41t46 10h74q35 0 46 -9.5t11 -41.5v-230h235v230q0 31 11.5 41t46.5 10h74q35 0 46 -9.5t11 -41.5v-230h162q33 0 42 -11t9 -46v-68q0 -35 -10.5 -46t-40.5 -11h-162 v-236h162q33 0 42 -11t9 -46v-68q0 -35 -10.5 -46t-40.5 -11h-162v-229q0 -33 -11.5 -42.5t-45.5 -9.5h-74q-35 0 -46.5 10.5t-11.5 41.5v229h-235v-229q0 -33 -11.5 -42.5t-45.5 -9.5h-74q-35 0 -46 10.5t-11 41.5v229h-162q-31 0 -41 11.5t-10 45.5zM467 569h235v236h-235 v-236z" />
<glyph unicode="$" d="M96 330q0 33 13.5 44t52.5 11h104q37 0 50.5 -10t19.5 -41q27 -135 188 -154v406l-108 32q-164 47 -240 140.5t-76 234.5v17q0 176 109.5 277.5t314.5 115.5v145q0 25 25 25h67q25 0 25 -25v-145q209 -12 326 -129q41 -41 62.5 -95.5t21.5 -123.5q0 -33 -13.5 -44.5 t-52.5 -11.5h-111q-39 0 -51 10.5t-16 41.5q-16 121 -166 143v-408l121 -34q309 -90 309 -361v-43q0 -172 -111.5 -268t-318.5 -107v-168q0 -25 -25 -24h-67q-25 0 -25 24v168q-90 6 -174 31t-147 82q-49 45 -78 103.5t-29 140.5zM338 1010q0 -70 42 -114t144 -75v375 q-186 -18 -186 -186zM641 180q186 23 186 168q0 78 -43 125t-143 78v-371z" />
<glyph unicode="%" horiz-adv-x="1839" d="M63 897v141q0 66 8.5 109t24.5 77q80 168 316 168q231 0 311 -164q16 -35 24.5 -75.5t8.5 -104.5v-141q0 -66 -8.5 -109t-24.5 -77q-80 -168 -311 -168q-236 0 -316 163q-16 35 -24.5 76t-8.5 105zM260 899q0 -104 33 -145.5t119 -41.5q84 0 116.5 41t32.5 146v147 q0 104 -32.5 145.5t-116.5 41.5q-86 0 -119 -41t-33 -146v-147zM465 18q0 8 12 33l672 1276q16 33 26.5 41t33.5 8h129q31 0 30 -18q0 -8 -12 -33l-672 -1276q-16 -33 -22 -41t-29 -8h-137q-31 0 -31 18zM1083 328v141q0 66 8.5 109t24.5 77q80 168 316 168q231 0 311 -164 q16 -35 24.5 -75.5t8.5 -104.5v-141q0 -66 -8.5 -109t-24.5 -77q-80 -168 -311 -168q-236 0 -316 163q-16 35 -24.5 76t-8.5 105zM1280 330q0 -104 33 -145.5t119 -41.5q84 0 116.5 41t32.5 146v147q0 104 -32.5 145.5t-116.5 41.5q-86 0 -119 -41t-33 -146v-147z" />
<glyph unicode="&#x26;" horiz-adv-x="1363" d="M113 375v18q0 285 247 365q-94 41 -144 122t-50 214q0 86 31.5 158.5t90 126t142.5 83t188 29.5q98 0 178.5 -24.5t136.5 -68.5t87 -107.5t31 -141.5q0 -31 -13.5 -42t-52.5 -11h-123q-35 0 -47 9t-16 34q-23 147 -181 147q-209 0 -208 -207q0 -229 235 -229h62 q31 0 41 -11.5t10 -50.5v-65q0 -39 -10.5 -51.5t-40.5 -12.5h-68q-129 0 -201.5 -60t-72.5 -169v-37q0 -102 70.5 -157.5t195.5 -55.5q147 0 207.5 81t60.5 267v256q0 41 12.5 53.5t46.5 12.5h283q31 0 41 -11.5t10 -45.5v-76q0 -35 -10 -46.5t-41 -11.5h-100v-184 q0 -135 -35 -231.5t-100.5 -156.5t-159.5 -88t-215 -28q-246 0 -382 105.5t-136 298.5z" />
<glyph unicode="'" horiz-adv-x="399" d="M72 1399q0 37 13 48t52 11h125q39 0 52.5 -11t13.5 -48q0 -4 -1 -28.5t-3 -59.5l-21 -406q-2 -37 -14.5 -48t-50.5 -11h-76q-39 0 -51.5 11t-14.5 48l-20 406q-2 35 -3 59.5t-1 28.5z" />
<glyph unicode="(" horiz-adv-x="677" d="M111 252v604q0 111 7 179.5t34 133.5q18 49 46.5 92.5t57.5 69.5q57 53 138 90t161 37q33 0 42 -11t9 -46v-107q0 -35 -10 -44t-47 -15q-74 -12 -121 -61q-76 -82 -76 -302v-636q0 -219 76 -302q47 -49 121 -61q37 -6 47 -15.5t10 -43.5v-107q0 -35 -9 -46t-42 -11 q-80 0 -161 37t-138 90q-29 27 -57.5 69.5t-46.5 92.5q-27 66 -34 134t-7 179z" />
<glyph unicode=")" horiz-adv-x="677" d="M72 -186q0 35 10 44t47 15q74 12 121 61q76 82 76 302v636q0 219 -76 302q-47 49 -121 61q-37 6 -47 15.5t-10 43.5v107q0 35 9 46t42 11q80 0 161 -37t138 -90q29 -27 57.5 -69.5t46.5 -92.5q27 -66 34 -134t7 -179v-604q0 -111 -7 -179.5t-34 -133.5 q-18 -49 -46.5 -92.5t-57.5 -69.5q-57 -53 -138 -90t-161 -37q-33 0 -42 11t-9 46v107z" />
<glyph unicode="*" horiz-adv-x="796" d="M41 1128q0 12 10 43l27 80q10 31 19 43.5t26 12.5q14 0 31 -11l176 -100l-33 154q-12 51 -12 65q0 25 16 34t51 9h84q35 0 51.5 -9t16.5 -34q0 -10 -10 -61l-29 -158l178 104q16 10 31 11q16 0 25.5 -12.5t19.5 -43.5l26 -79q10 -31 11 -43q0 -14 -9.5 -23.5t-37.5 -13.5 l-195 -29l152 -137q20 -20 20 -35q0 -14 -11 -26.5t-28 -24.5l-67 -49q-35 -23 -52 -23q-23 0 -36 31l-89 186l-88 -186q-16 -31 -36 -31q-16 0 -52 23l-67 49q-16 12 -27.5 24.5t-11.5 26.5t20 35l150 137l-203 25q-29 4 -38 13t-9 23z" />
<glyph unicode="+" d="M115 639v98q0 35 9 46.5t42 11.5h311v319q0 31 11.5 41t46.5 10h98q35 0 46 -9t11 -42v-319h311q33 0 42.5 -11.5t9.5 -46.5v-98q0 -35 -10.5 -46t-41.5 -11h-311v-320q0 -33 -11 -42t-46 -9h-98q-35 0 -46.5 10t-11.5 41v320h-311q-31 0 -41 11t-10 46z" />
<glyph unicode="," horiz-adv-x="569" d="M78 -301q0 8 4 18.5t8 20.5l121 262q-41 12 -65.5 50t-24.5 93v33q0 70 45 110t121 40t121 -40t45 -110v-49q0 -41 -16.5 -87t-59.5 -130l-92 -174q-10 -20 -19.5 -32.5t-19.5 -19t-23.5 -8.5t-32.5 -2h-75q-37 0 -37 25z" />
<glyph unicode="-" horiz-adv-x="794" d="M78 494v112q0 39 11 52.5t48 13.5h520q37 0 48.5 -13.5t11.5 -52.5v-112q0 -39 -11.5 -52.5t-48.5 -13.5h-520q-37 0 -48 13.5t-11 52.5z" />
<glyph unicode="." horiz-adv-x="569" d="M119 127v49q0 70 45 110t121 40t121 -40t45 -110v-49q0 -70 -45.5 -110t-120.5 -40q-76 0 -121 40t-45 110z" />
<glyph unicode="/" horiz-adv-x="735" d="M6 31q0 10 6 28l486 1340q16 41 27.5 50t45.5 9h115q25 0 34 -8t9 -23q0 -10 -6 -28l-485 -1340q-16 -41 -27.5 -50t-46.5 -9h-115q-25 0 -34 8t-9 23z" />
<glyph unicode="0" horiz-adv-x="1187" d="M94 545v266q0 111 10.5 180.5t34.5 128.5q115 285 455 285t455 -275q25 -57 35 -124.5t10 -174.5v-266q0 -111 -10.5 -180.5t-34.5 -128.5q-115 -285 -455 -285t-455 275q-25 57 -35 124.5t-10 174.5zM352 537q0 -94 12.5 -159t41 -105t74.5 -57t114 -17t114 17t74.5 57 t41 104.5t12.5 159.5v303q0 92 -12.5 156.5t-41 104.5t-74.5 58.5t-114 18.5t-114 -18.5t-74.5 -58.5t-41 -104.5t-12.5 -156.5v-303z" />
<glyph unicode="1" horiz-adv-x="757" d="M53 1221v90q0 39 11.5 52t48.5 13h387q39 0 52 -11t13 -48v-1258q0 -37 -13 -48t-52 -11h-113q-39 0 -52 11.5t-13 47.5v1096h-209q-37 0 -48.5 13.5t-11.5 52.5z" />
<glyph unicode="2" horiz-adv-x="1077" d="M72 59v101q0 92 22.5 164.5t60.5 129t89 98.5t108 75l174 100q41 25 79 50.5t66.5 58t46 72.5t17.5 89v21q0 180 -196 180q-98 0 -144.5 -39t-60.5 -137q-4 -25 -17.5 -34t-46.5 -9h-116q-39 0 -52.5 12.5t-13.5 50.5q0 63 24.5 128t65.5 106q129 129 371 129 q213 0 326.5 -97.5t113.5 -277.5v-61q0 -74 -27.5 -136.5t-73.5 -114.5t-105.5 -95t-120.5 -80l-164 -99q-55 -33 -87 -60.5t-48.5 -52t-20.5 -49t-4 -49.5v-8h592q37 0 48 -13t11 -52v-94q0 -39 -11 -52.5t-48 -13.5h-793q-39 0 -52 11.5t-13 47.5z" />
<glyph unicode="3" horiz-adv-x="1124" d="M92 322q0 39 13.5 51t52.5 12h116q35 0 48.5 -9t15.5 -34q14 -162 223 -162q106 0 163.5 47t57.5 140v49q0 193 -211 192h-61q-37 0 -48 13.5t-11 52.5v90q0 39 11 52t48 13h37q221 0 221 185v24q0 168 -201 168q-100 0 -152.5 -40t-66.5 -132q-4 -25 -17.5 -34t-45.5 -9 h-109q-39 0 -52 12.5t-13 51.5q0 61 23.5 119.5t66.5 101.5q66 68 157 98.5t230 30.5q211 0 322.5 -90t111.5 -264v-41q0 -98 -55.5 -171t-153.5 -114q111 -29 169 -104.5t58 -192.5v-76q0 -180 -126 -280.5t-343 -100.5q-131 0 -230 32t-159 91q-41 41 -65.5 103.5 t-24.5 124.5z" />
<glyph unicode="4" horiz-adv-x="1159" d="M96 336v143q0 25 4 46.5t21 43.5l516 750q25 35 38 46t42 11h155q39 0 52.5 -11t13.5 -48v-832h82q37 0 48 -13t11 -52v-84q0 -39 -11 -52.5t-48 -13.5h-82v-211q0 -37 -13.5 -48t-52.5 -11h-104q-39 0 -52.5 11.5t-13.5 47.5v211h-546q-37 0 -48.5 13.5t-11.5 52.5z M303 485h399v576z" />
<glyph unicode="5" horiz-adv-x="1091" d="M80 305q0 39 13 51.5t52 12.5h117q33 0 46.5 -9.5t17.5 -33.5q12 -78 60 -112t146 -34q211 0 211 209v78q0 221 -198 221q-35 0 -76 -8t-70 -23q-39 -18 -56 -23t-44 -5h-111q-41 0 -53 12t-12 47v629q0 35 12 47t53 12h703q35 0 47 -12t12 -53v-90q0 -41 -12 -53.5 t-47 -12.5h-545v-319q66 31 126 45t128 14q391 0 391 -426v-92q0 -193 -119.5 -299.5t-330.5 -106.5q-256 0 -373 119q-41 41 -64.5 98.5t-23.5 116.5z" />
<glyph unicode="6" horiz-adv-x="1124" d="M94 485v279q0 129 8.5 209t26.5 141q86 291 440 291q242 0 361 -102q94 -80 94 -220q0 -31 -13.5 -42t-52.5 -11h-112q-33 0 -46.5 9.5t-17.5 33.5q-10 61 -39 90q-49 49 -168 49q-117 0 -172 -61q-63 -76 -63 -221v-144q33 47 115 79t180 32q418 0 418 -393v-98 q0 -209 -126 -322t-356 -113q-309 0 -417 201q-33 57 -46.5 130t-13.5 183zM332 410q-1 -242 239 -242q238 0 238 242v49q0 242 -238 241q-240 0 -239 -241v-49z" />
<glyph unicode="7" horiz-adv-x="1007" d="M31 1221v90q0 39 11 52t48 13h807q37 0 48 -13t11 -52v-115q0 -76 -16 -137.5t-42 -112.5t-59.5 -95t-68.5 -85l-80 -94q-63 -76 -105 -168t-42 -234v-211q0 -37 -13.5 -48t-52.5 -11h-115q-39 0 -52 11.5t-13 47.5v162q0 117 17.5 206t46 157.5t65.5 121t76 95.5l80 92 q35 41 58.5 74.5t36.5 64.5t19 60.5t6 62.5h-612q-37 0 -48 13.5t-11 52.5z" />
<glyph unicode="8" horiz-adv-x="1175" d="M84 346v57q0 113 58.5 192t168.5 107q-92 37 -141 112t-49 173v51q0 172 126 269.5t343 97.5t340 -97.5t123 -269.5v-51q0 -100 -48.5 -174t-140.5 -111q111 -29 169.5 -107.5t58.5 -191.5v-57q0 -178 -133.5 -276.5t-368.5 -98.5q-240 0 -373 98.5t-133 276.5zM336 375 q0 -92 68.5 -146.5t185.5 -54.5t183.5 54.5t66.5 146.5v33q0 92 -66.5 144t-183.5 52t-185.5 -52t-68.5 -144v-33zM367 991q0 -92 59 -143t164 -51q104 0 162.5 51t58.5 143v29q0 92 -58.5 141t-162.5 49t-163.5 -49t-59.5 -141v-29z" />
<glyph unicode="9" horiz-adv-x="1124" d="M72 872v99q0 209 126 321.5t355 112.5q309 0 418 -201q33 -57 46 -130t13 -183v-279q0 -129 -8 -208.5t-27 -141.5q-86 -291 -440 -291q-133 0 -216 24.5t-153 84.5q-86 76 -86 213q0 31 13.5 42t52.5 11h115q33 0 46 -9t17 -34q12 -72 58.5 -103.5t138.5 -31.5 q123 0 182 61q61 68 61 215v146q-33 -47 -114.5 -79t-180.5 -32q-418 0 -417 393zM309 918q0 -125 57.5 -183.5t180.5 -58.5q125 0 182 58.5t57 183.5v49q0 125 -57 183t-182 58q-123 0 -180.5 -58t-57.5 -183v-49z" />
<glyph unicode=":" horiz-adv-x="569" d="M119 127v49q0 70 45 110t121 40t121 -40t45 -110v-49q0 -70 -45.5 -110t-120.5 -40q-76 0 -121 40t-45 110zM119 893v49q0 70 45 110t121 40t121 -40t45 -110v-49q0 -70 -45.5 -110t-120.5 -40q-76 0 -121 40t-45 110z" />
<glyph unicode=";" horiz-adv-x="569" d="M78 -301q0 8 4 18.5t8 20.5l121 262q-41 12 -65.5 50t-24.5 93v33q0 70 45 110t121 40t121 -40t45 -110v-49q0 -41 -16.5 -87t-59.5 -130l-92 -174q-10 -20 -19.5 -32.5t-19.5 -19t-23.5 -8.5t-32.5 -2h-75q-37 0 -37 25zM119 893v49q0 70 45 110t121 40t121 -40t45 -110 v-49q0 -70 -45.5 -110t-120.5 -40q-76 0 -121 40t-45 110z" />
<glyph unicode="&#x3c;" d="M115 639v98q0 33 7 45.5t34 22.5l837 334q14 6 29 6q14 0 22.5 -9.5t8.5 -33.5v-111q0 -35 -9.5 -46t-50.5 -27l-635 -230l635 -233q41 -16 50.5 -27.5t9.5 -46.5v-107q0 -25 -8.5 -34t-22.5 -9t-29 7l-837 333q-27 10 -34 22.5t-7 45.5z" />
<glyph unicode="=" d="M115 428v98q0 35 9 46.5t42 11.5h835q33 0 42.5 -11.5t9.5 -46.5v-98q0 -35 -10.5 -46t-41.5 -11h-835q-31 0 -41 11t-10 46zM115 852v98q0 35 9 46.5t42 11.5h835q33 0 42.5 -11.5t9.5 -46.5v-98q0 -35 -10.5 -46t-41.5 -11h-835q-31 0 -41 11t-10 46z" />
<glyph unicode="&#x3e;" d="M115 274v111q0 35 9 46t50 28l635 229l-635 234q-41 16 -50 27.5t-9 45.5v107q0 25 8 34t22 9q12 0 29 -6l838 -334q27 -10 34 -22.5t7 -45.5v-98q0 -33 -7.5 -45t-33.5 -23l-838 -333q-16 -6 -29 -7q-14 0 -22 9.5t-8 33.5z" />
<glyph unicode="?" horiz-adv-x="1089" d="M68 1133q0 61 23.5 119.5t66.5 101.5q66 68 157 98.5t226 30.5q201 0 312.5 -94.5t111.5 -264.5v-26q0 -106 -48.5 -184t-158.5 -150l-58 -37q-23 -14 -37 -26.5t-22 -28t-10 -35t-2 -49.5v-84q0 -35 -12.5 -47.5t-53.5 -12.5h-100q-39 0 -51.5 12.5t-12.5 47.5v84 q0 57 8.5 101t28 80t51 66.5t80.5 61.5l58 37q47 33 66.5 69.5t19.5 98.5v18q0 80 -49.5 124t-137.5 44q-98 0 -148 -41t-65 -135q-4 -25 -16 -34t-45 -9h-117q-39 0 -52 12.5t-13 51.5zM365 104v50q0 61 40.5 97t108.5 36t109 -36t41 -97v-50q0 -61 -41 -97t-109 -36 t-108.5 36t-40.5 97z" />
<glyph unicode="@" horiz-adv-x="1482" d="M111 291v178q0 152 41 270.5t119.5 200.5t191 125t256.5 43h147q258 0 382 -112.5t124 -342.5v-293q0 -350 -393 -350h-57q-223 0 -323.5 81t-100.5 261q-1 350 417 350q59 0 117 -3t105 -9q0 115 -68 164t-225 49h-109q-389 0 -389 -434v-178q0 -119 24.5 -202t81 -134 t150.5 -73.5t236 -22.5h428q31 0 41 -11.5t10 -46.5v-94q0 -35 -10.5 -46t-40.5 -11h-463q-365 0 -528.5 156.5t-163.5 484.5zM735 354q0 -82 43 -119.5t137 -37.5h35q102 0 144.5 48t42.5 167v92q-109 12 -209 12q-102 0 -147.5 -38t-45.5 -124z" />
<glyph unicode="A" horiz-adv-x="1280" d="M20 37q0 6 5 22l460 1362q8 25 22.5 31t43.5 6h184q29 0 43.5 -6t22.5 -31l454 -1362q4 -16 5 -22q0 -37 -46 -37h-143q-39 0 -50 11.5t-24 47.5l-94 289h-536l-93 -291q-12 -37 -23 -47t-50 -10h-135q-45 0 -46 37zM434 561h400l-201 623z" />
<glyph unicode="B" horiz-adv-x="1247" d="M147 59v1340q0 37 13.5 48t52.5 11h471q219 0 331.5 -93t112.5 -275v-27q0 -113 -56 -192.5t-142 -102.5q96 -25 157.5 -112t61.5 -207v-33q0 -227 -130 -321.5t-376 -94.5h-430q-39 0 -52.5 11.5t-13.5 47.5zM393 213h258q113 0 175.5 47t62.5 158v41q0 94 -53.5 148.5 t-153.5 54.5h-289v-449zM393 866h275q104 0 154 41t50 133v27q0 92 -53 135t-168 43h-258v-379z" />
<glyph unicode="C" horiz-adv-x="1234" d="M111 569v299q0 111 11 184.5t36 139.5q55 145 181 222t312 77q262 0 389 -137q59 -63 84 -137t25 -179q0 -33 -13.5 -44t-52.5 -11h-127q-37 0 -50 10.5t-15 40.5q-4 129 -61.5 184.5t-190.5 55.5q-150 0 -211 -85t-61 -288v-344q0 -197 62.5 -284t207.5 -87 q129 0 191.5 59.5t66.5 184.5q2 31 15.5 41t50.5 10h122q39 0 52.5 -11t13.5 -44q0 -111 -26.5 -183.5t-88.5 -136.5q-135 -139 -409 -139q-168 0 -287 71t-180 208q-27 59 -37 131t-10 192z" />
<glyph unicode="D" horiz-adv-x="1275" d="M147 59v1340q0 37 13.5 48t52.5 11h418q100 0 179 -22.5t139.5 -60.5t101.5 -88t65 -107q23 -55 36 -124t13 -186v-292q0 -115 -13 -182.5t-36 -121.5q-23 -55 -61.5 -105t-94 -88t-130 -59.5t-168.5 -21.5h-449q-39 0 -52.5 11.5t-13.5 47.5zM397 221h230q70 0 122 17.5 t87.5 58.5t54 109.5t18.5 171.5v303q0 100 -19.5 168.5t-55 109.5t-88 59.5t-119.5 18.5h-230v-1016z" />
<glyph unicode="E" horiz-adv-x="1155" d="M147 59v1340q0 37 13.5 48t52.5 11h764q37 0 48 -13t11 -52v-90q0 -39 -11 -52.5t-48 -13.5h-580v-377h527q37 0 48 -13t11 -52v-90q0 -39 -11 -52.5t-48 -13.5h-527v-418h588q37 0 48 -13t11 -52v-90q0 -39 -11 -52.5t-48 -13.5h-772q-39 0 -52.5 11.5t-13.5 47.5z" />
<glyph unicode="F" horiz-adv-x="1114" d="M147 59v1340q0 37 13.5 48t52.5 11h760q37 0 48 -13t11 -52v-90q0 -39 -11 -52.5t-48 -13.5h-576v-360h523q37 0 48 -13.5t11 -52.5v-90q0 -39 -11.5 -52.5t-47.5 -13.5h-523v-596q0 -37 -13 -48t-52 -11h-119q-39 0 -52.5 11.5t-13.5 47.5z" />
<glyph unicode="G" horiz-adv-x="1288" d="M111 569v299q0 211 47 324q59 147 191 223t317 76q104 0 197 -25.5t163 -79t111 -136.5t41 -197q0 -29 -14.5 -39t-51.5 -10h-127q-37 0 -50 10t-15 41q-8 117 -74 168t-197 51q-76 0 -129 -17.5t-87 -60.5t-50 -114.5t-16 -180.5v-344q0 -207 68.5 -291t213.5 -84 q135 0 205 70t70 237v39h-158q-37 0 -48 13.5t-11 52.5v90q0 39 11 52.5t48 13.5h346q39 0 52.5 -11.5t13.5 -48.5v-231q0 -100 -32 -189.5t-97.5 -157t-166 -106.5t-235.5 -39q-199 0 -314.5 73t-174.5 206q-27 59 -37 132t-10 191z" />
<glyph unicode="H" horiz-adv-x="1347" d="M147 59v1340q0 37 13.5 48t52.5 11h119q39 0 52 -11t13 -48v-525h553v525q0 37 13.5 48t52.5 11h119q39 0 52 -11t13 -48v-1340q0 -37 -13 -48t-52 -11h-119q-39 0 -52.5 11.5t-13.5 47.5v594h-553v-594q0 -37 -13 -48t-52 -11h-119q-39 0 -52.5 11.5t-13.5 47.5z" />
<glyph unicode="I" horiz-adv-x="544" d="M147 59v1340q0 37 13.5 48t52.5 11h119q39 0 52 -11t13 -48v-1340q0 -37 -13 -48t-52 -11h-119q-39 0 -52.5 11.5t-13.5 47.5z" />
<glyph unicode="J" horiz-adv-x="1114" d="M51 397q0 33 13.5 44.5t52.5 11.5h119q37 0 50 -10.5t15 -41.5q6 -98 53 -152t152 -54q66 0 109.5 17t69.5 57t36 106.5t10 165.5v858q0 37 13.5 48t52.5 11h118q39 0 52.5 -11t13.5 -48v-930q0 -88 -12.5 -160.5t-44.5 -134.5q-49 -98 -149.5 -152.5t-266.5 -54.5 q-100 0 -184 26.5t-144.5 80t-94.5 134.5t-34 189z" />
<glyph unicode="K" horiz-adv-x="1245" d="M147 59v1340q0 35 12.5 47t53.5 12h115q41 0 53 -12t12 -47v-598l477 598q33 41 46.5 50t41.5 9h172q41 0 41 -33q0 -14 -10 -26l-428 -525l467 -815q8 -16 8 -26q0 -33 -53 -33h-160q-35 0 -50 11.5t-36 47.5l-346 613l-170 -193v-420q0 -35 -12 -47t-53 -12h-115 q-41 0 -53.5 12.5t-12.5 46.5z" />
<glyph unicode="L" horiz-adv-x="1052" d="M147 59v1340q0 37 13.5 48t52.5 11h119q39 0 52 -11t13 -48v-1178h545q37 0 48 -13t11 -52v-90q0 -39 -11 -52.5t-48 -13.5h-729q-39 0 -52.5 11.5t-13.5 47.5z" />
<glyph unicode="M" horiz-adv-x="1517" d="M147 59v1340q0 37 13.5 48t52.5 11h119q41 0 57.5 -10t34.5 -49l334 -719l336 719q18 39 34.5 49t57.5 10h119q39 0 52 -11t13 -48v-1340q0 -37 -13.5 -48t-51.5 -11h-113q-39 0 -52.5 11.5t-13.5 47.5v916l-225 -490q-16 -37 -29.5 -48t-54.5 -11h-117q-41 0 -54 11.5 t-30 47.5l-225 490v-916q0 -37 -13 -48t-52 -11h-113q-39 0 -52.5 11.5t-13.5 47.5z" />
<glyph unicode="N" horiz-adv-x="1306" d="M147 59v1340q0 37 13.5 48t52.5 11h119q39 0 56.5 -9t37.5 -48l489 -928v926q0 37 13.5 48t52.5 11h113q39 0 52 -11t13 -48v-1340q0 -37 -13 -48t-52 -11h-119q-39 0 -56.5 9t-37.5 48l-490 928v-926q0 -37 -13 -48t-52 -11h-113q-39 0 -52.5 11.5t-13.5 47.5z" />
<glyph unicode="O" horiz-adv-x="1294" d="M111 569v299q0 106 11 183t36 141q59 147 183 223t306 76t306 -70.5t184 -208.5q27 -59 37 -132.5t10 -190.5v-299q0 -106 -11.5 -183t-35.5 -141q-59 -147 -183.5 -223t-306.5 -76t-306 71t-183 208q-27 59 -37 133t-10 190zM367 557q0 -199 64.5 -285t215.5 -86 q152 0 216.5 86t64.5 285v344q0 199 -64.5 285t-216.5 86t-216 -86t-64 -285v-344z" />
<glyph unicode="P" horiz-adv-x="1169" d="M147 59v1340q0 37 13.5 48t52.5 11h408q121 0 213 -23.5t153.5 -76.5t92 -137t30.5 -207v-41q0 -223 -124 -327.5t-365 -104.5h-228v-482q0 -37 -13 -48t-52 -11h-115q-39 0 -52.5 11.5t-13.5 47.5zM393 754h228q78 0 124 17t70.5 48t32.5 72t8 86v29q0 51 -8 94 t-32.5 75.5t-71 51t-123.5 18.5h-228v-491z" />
<glyph unicode="Q" horiz-adv-x="1335" d="M111 569v299q0 106 11 183t36 141q59 147 183 223t306 76t306 -70.5t184 -208.5q27 -59 37 -132.5t10 -190.5v-316q0 -266 -166 -360h209q37 0 48 -13.5t11 -52.5v-81q0 -39 -11 -52.5t-48 -13.5h-580q-274 0 -405 147.5t-131 421.5zM367 573q0 -188 64.5 -271t215.5 -83 q152 0 216.5 83t64.5 271v328q0 197 -65.5 284t-215.5 87q-152 0 -216 -87t-64 -284v-328z" />
<glyph unicode="R" horiz-adv-x="1255" d="M147 59v1340q0 35 12.5 47t53.5 12h438q244 0 356.5 -101.5t112.5 -324.5v-39q0 -311 -248 -393l306 -541q8 -16 8 -26q0 -33 -53 -33h-154q-35 0 -50.5 11.5t-35.5 47.5l-277 510h-223v-510q0 -35 -12 -47t-53 -12h-115q-41 0 -53.5 12.5t-12.5 46.5zM393 782h256 q119 0 168 48.5t49 164.5v29q0 123 -48 172t-169 49h-256v-463z" />
<glyph unicode="S" horiz-adv-x="1169" d="M82 352q0 33 13.5 44.5t51.5 11.5h115q37 0 50.5 -10.5t19.5 -41.5q18 -88 79.5 -132t174.5 -44q129 0 186 46t57 151q0 82 -47 134t-151 85l-217 68q-152 47 -233 145t-81 233v19q0 205 130 317.5t370 112.5q258 0 383 -137q86 -98 86 -238q0 -33 -13.5 -44t-51.5 -11 h-117q-39 0 -51.5 10t-16.5 41q-18 168 -239 168q-225 0 -226 -203q0 -41 10.5 -71.5t35 -54t64.5 -43t99 -38.5l217 -67q156 -47 233 -148.5t77 -246.5v-27q0 -199 -129.5 -306.5t-364.5 -107.5q-279 0 -408 129q-51 53 -78.5 119t-27.5 137z" />
<glyph unicode="T" d="M41 1303v90q0 39 11 52t48 13h967q37 0 48 -13t11 -52v-90q0 -39 -11 -52.5t-48 -13.5h-358v-1178q0 -37 -13.5 -48t-52.5 -11h-119q-39 0 -52 11.5t-13 47.5v1178h-359q-37 0 -48 13.5t-11 52.5z" />
<glyph unicode="U" horiz-adv-x="1294" d="M133 508v891q0 35 12.5 47t53.5 12h118q41 0 53.5 -12t12.5 -47v-889q0 -315 252 -315h24q252 0 252 315v889q0 35 12.5 47t53.5 12h119q41 0 53 -12t12 -47v-891q0 -268 -129 -404.5t-377 -136.5h-16q-248 0 -377 136.5t-129 404.5z" />
<glyph unicode="V" horiz-adv-x="1210" d="M29 1421q0 37 45 37h147q39 0 51.5 -11t22.5 -48l313 -1090l314 1090q10 37 22 48t51 11h142q45 0 45 -37q0 -6 -4 -22l-416 -1362q-8 -25 -22.5 -31t-43.5 -6h-182q-29 0 -43 6t-22 31l-416 1362q-4 16 -4 22z" />
<glyph unicode="W" horiz-adv-x="1632" d="M29 1421q0 37 43 37h137q37 0 51 -10t23 -49l194 -1006l213 977q4 23 19.5 30t46.5 7h123q31 0 46 -7t19 -30l193 -987l217 1016q8 39 22.5 49t50.5 10h134q43 0 43 -37q0 -16 -7 -41l-303 -1343q-4 -23 -20.5 -30t-44.5 -7h-158q-31 0 -46 7t-19 30l-201 962l-199 -962 q-4 -23 -19.5 -30t-45.5 -7h-154q-29 0 -45 7t-20 30l-287 1343q-6 25 -6 41z" />
<glyph unicode="X" horiz-adv-x="1179" d="M31 37q0 12 10 29l414 700l-394 627q-10 16 -10 28q0 37 45 37h162q37 0 51.5 -11t36.5 -50l244 -414l252 414q23 37 36 49t52 12h153q45 0 45 -37q0 -12 -10 -28l-393 -621l414 -706q10 -16 10 -29q0 -37 -45 -37h-162q-39 0 -53.5 11.5t-34.5 49.5l-268 482l-269 -482 q-23 -39 -37 -50t-51 -11h-153q-45 0 -45 37z" />
<glyph unicode="Y" horiz-adv-x="1179" d="M20 1425q0 33 52 33h153q35 0 48.5 -9t27.5 -38l297 -604l293 604q14 29 27.5 38t48.5 9h141q51 0 51 -33q0 -14 -6 -26l-438 -846v-494q0 -37 -13.5 -48t-52.5 -11h-119q-39 0 -52 11.5t-13 47.5v494l-438 846q-6 12 -7 26z" />
<glyph unicode="Z" horiz-adv-x="1155" d="M74 59v115q0 31 20 59l668 1004h-598q-37 0 -48.5 13.5t-11.5 52.5v90q0 39 11.5 52t48.5 13h835q39 0 52.5 -11t13.5 -48v-113q0 -16 -4 -29.5t-17 -31.5l-671 -1004h649q37 0 48 -13t11 -52v-90q0 -39 -11 -52.5t-48 -13.5h-883q-39 0 -52 11.5t-13 47.5z" />
<glyph unicode="[" horiz-adv-x="700" d="M147 -291v1690q0 37 13.5 48t52.5 11h365q33 0 42 -11t9 -46v-88q0 -35 -10.5 -46.5t-40.5 -11.5h-193v-1402h193q31 0 41 -11.5t10 -46.5v-88q0 -35 -9.5 -46t-41.5 -11h-365q-39 0 -52.5 11t-13.5 48z" />
<glyph unicode="\" horiz-adv-x="735" d="M6 1427q0 14 9.5 22.5t33.5 8.5h115q35 0 46 -9t28 -50l485 -1340q6 -18 6 -28q0 -14 -9 -22.5t-34 -8.5h-115q-35 0 -46 9t-27 50l-486 1340q-6 18 -6 28z" />
<glyph unicode="]" horiz-adv-x="700" d="M72 -205q0 35 10 46.5t41 11.5h192v1402h-192q-31 0 -41 11.5t-10 46.5v88q0 35 9 46t42 11h364q39 0 52.5 -11t13.5 -48v-1690q0 -37 -13.5 -48t-52.5 -11h-364q-33 0 -42 11t-9 46v88z" />
<glyph unicode="^" d="M63 442q0 12 11 29l405 692q10 18 20.5 23.5t26.5 5.5h115q16 0 26.5 -5t20.5 -24l406 -692q10 -16 10 -29q0 -27 -39 -26h-156q-25 0 -37 12t-32 47l-260 455l-261 -455q-20 -35 -32.5 -47t-36.5 -12h-148q-39 0 -39 26z" />
<glyph unicode="_" horiz-adv-x="1024" d="M0 -190q0 35 10 46t41 11h922q31 0 41 -11.5t10 -45.5v-103q0 -35 -10 -46t-41 -11h-922q-31 0 -41 11t-10 46v103z" />
<glyph unicode="`" horiz-adv-x="1024" d="M320 1470q0 25 39 25h145q39 0 53.5 -10t40.5 -53l92 -160q16 -29 17 -37q0 -25 -39 -25h-123q-16 0 -27.5 2t-20.5 8.5t-20.5 19.5t-27.5 36l-113 158q-16 23 -16 36z" />
<glyph unicode="a" horiz-adv-x="1069" d="M82 322q0 100 32.5 167.5t90 107.5t133.5 57.5t162 17.5q47 0 107.5 -3t113.5 -10v54q0 117 -44 159.5t-136 42.5q-63 0 -104.5 -19t-57.5 -67q-8 -25 -20.5 -31.5t-45.5 -6.5h-133q-33 0 -45 11t-12 34q0 80 63 149q51 55 135.5 86t219.5 31q121 0 200.5 -24.5t128 -72 t67.5 -117t19 -159.5v-399q0 -68 -18 -131.5t-63.5 -112.5t-121 -77.5t-190.5 -28.5h-57q-217 0 -320.5 80.5t-103.5 261.5zM319 324q0 -88 47.5 -123t133.5 -35h35q100 0 143 49t43 166v92q-68 8 -119 10t-90 2q-98 0 -145.5 -36.5t-47.5 -124.5z" />
<glyph unicode="b" horiz-adv-x="1132" d="M113 438v961q0 35 12 47t53 12h113q41 0 53 -12t12 -47v-389q92 92 262 92q205 0 313.5 -117t108.5 -338v-221q0 -213 -123.5 -334t-343.5 -121q-238 0 -349 124t-111 343zM352 457q0 -281 221 -281q223 0 224 281v157q0 281 -224 281q-221 0 -221 -281v-157z" />
<glyph unicode="c" horiz-adv-x="1058" d="M92 426v201q0 231 113.5 353t331.5 122q229 0 350 -121q88 -88 88 -231q0 -33 -13.5 -44.5t-52.5 -11.5h-106q-35 0 -48.5 9.5t-17.5 33.5q-16 86 -58 123t-134 37q-113 0 -161 -63.5t-48 -217.5v-159q0 -150 45 -214.5t156 -64.5q92 0 138 36t62 122q4 25 17.5 34 t48.5 9h106q39 0 52.5 -11.5t13.5 -43.5q0 -143 -88 -232q-121 -121 -350 -121q-217 0 -331 116t-114 339z" />
<glyph unicode="d" horiz-adv-x="1132" d="M92 416v200q0 236 108.5 361t313.5 125q170 0 262 -92v389q0 35 12.5 47t53.5 12h112q41 0 53.5 -12t12.5 -47v-971q0 -221 -119 -339t-342 -118q-219 0 -343 118t-124 327zM336 457q0 -281 223 -281q221 0 221 281v155q0 141 -56 212t-165 71q-223 0 -223 -281v-157z " />
<glyph unicode="e" horiz-adv-x="1083" d="M92 444v160q0 240 118 369t339 129t333.5 -120t112.5 -355v-97q0 -35 -12 -47t-53 -12h-594v-10q0 -154 50 -218.5t167 -64.5q150 0 182 107q12 34 54 34h2h127q35 0 49 -10t14 -37q0 -39 -25.5 -91t-60.5 -87q-57 -59 -147.5 -91t-200.5 -32q-217 0 -336 122t-119 351z M336 655h412q0 129 -46.5 189.5t-150.5 60.5q-111 0 -161 -57t-54 -193z" />
<glyph unicode="f" horiz-adv-x="724" d="M55 930v86q0 35 10.5 46t40.5 11h107v68q0 88 27.5 148.5t77 98t117 54t145.5 16.5h100q31 0 41 -11t10 -46v-86q0 -35 -10 -46.5t-41 -11.5h-80q-78 0 -110.5 -27.5t-32.5 -105.5v-51h182q31 0 41 -11t10 -46v-86q0 -35 -10 -46.5t-41 -11.5h-182v-813q0 -37 -13.5 -48 t-52.5 -11h-112q-39 0 -52.5 11.5t-13.5 47.5v813h-107q-31 0 -41 11.5t-10 46.5z" />
<glyph unicode="g" horiz-adv-x="1132" d="M92 467v170q0 221 122 343t345 122q219 0 340 -110.5t121 -311.5v-660q0 -209 -113.5 -304t-361.5 -95q-193 0 -303.5 65.5t-110.5 180.5q0 39 55 39h136q23 0 35 -7t28 -32q29 -39 63.5 -53.5t100.5 -14.5q57 0 102 15.5t72 40.5q53 51 53 147v102q-90 -92 -262 -92 q-205 0 -313.5 117t-108.5 338zM336 500q0 -281 223 -281q221 0 221 281v127q0 141 -53 205.5t-168 64.5q-117 0 -170 -64.5t-53 -205.5v-127z" />
<glyph unicode="h" horiz-adv-x="1130" d="M133 59v1340q0 35 12.5 47t53.5 12h112q41 0 53.5 -12t12.5 -47v-412q102 115 287 115q174 0 259 -98.5t85 -272.5v-672q0 -35 -12.5 -47t-53.5 -12h-113q-41 0 -53 12.5t-12 46.5v635q0 94 -38 144.5t-142 50.5q-98 0 -152.5 -60.5t-54.5 -169.5v-600q0 -35 -12.5 -47 t-53.5 -12h-112q-41 0 -53.5 12.5t-12.5 46.5z" />
<glyph unicode="i" horiz-adv-x="509" d="M117 1319v43q0 59 36.5 91t102.5 32t103.5 -32t37.5 -91v-43q0 -59 -37.5 -91t-103.5 -32t-102.5 32t-36.5 91zM133 59v955q0 37 13.5 48t52.5 11h112q39 0 52.5 -11t13.5 -48v-955q0 -37 -13.5 -48t-52.5 -11h-112q-39 0 -52.5 11.5t-13.5 47.5z" />
<glyph unicode="j" horiz-adv-x="509" d="M-109 -205q0 35 10.5 46.5t41.5 11.5h67q66 0 94.5 30.5t28.5 102.5v1028q0 37 13.5 48t52.5 11h112q39 0 52.5 -11t13.5 -48v-1045q0 -168 -82 -243.5t-244 -75.5h-108q-31 0 -41.5 11t-10.5 46v88zM117 1319v43q0 59 36.5 91t102.5 32t103.5 -32t37.5 -91v-43 q0 -59 -37.5 -91t-103.5 -32t-102.5 32t-36.5 91z" />
<glyph unicode="k" horiz-adv-x="1071" d="M133 59v1340q0 37 13.5 48t52.5 11h112q39 0 52.5 -11t13.5 -48v-756l356 381q35 37 51.5 43t40.5 6h154q49 0 49 -35q0 -18 -18 -37l-322 -323l371 -606q12 -23 12 -37q0 -35 -49 -35h-164q-29 0 -41 10t-29 39l-270 459l-141 -143v-306q0 -37 -13.5 -48t-52.5 -11h-112 q-39 0 -52.5 11.5t-13.5 47.5z" />
<glyph unicode="l" horiz-adv-x="509" d="M133 59v1340q0 37 13.5 48t52.5 11h112q39 0 52.5 -11t13.5 -48v-1340q0 -37 -13.5 -48t-52.5 -11h-112q-39 0 -52.5 11.5t-13.5 47.5z" />
<glyph unicode="m" horiz-adv-x="1712" d="M133 59v955q0 37 13.5 48t52.5 11h108q39 0 52.5 -11t13.5 -48v-41q47 61 118.5 95t163.5 34q102 0 172 -39t109 -111q49 72 132 111t194 39q166 0 246.5 -98.5t80.5 -272.5v-672q0 -37 -13 -48t-52 -11h-113q-39 0 -52 11.5t-13 47.5v635q0 94 -36 144.5t-130 50.5 q-92 0 -144.5 -60.5t-52.5 -169.5v-600q0 -37 -13.5 -48t-51.5 -11h-113q-39 0 -52.5 11.5t-13.5 47.5v635q0 94 -35.5 144.5t-130.5 50.5q-92 0 -144 -60.5t-52 -169.5v-600q0 -37 -13.5 -48t-52.5 -11h-112q-39 0 -52.5 11.5t-13.5 47.5z" />
<glyph unicode="n" horiz-adv-x="1130" d="M133 59v955q0 37 13.5 48t52.5 11h108q39 0 52.5 -11t13.5 -48v-43q47 61 123 96t172 35q174 0 257 -98.5t83 -272.5v-672q0 -37 -13.5 -48t-52.5 -11h-113q-39 0 -52 11.5t-13 47.5v635q0 94 -38 144.5t-138 50.5q-98 0 -154.5 -60.5t-56.5 -169.5v-600q0 -37 -13.5 -48 t-52.5 -11h-112q-39 0 -52.5 11.5t-13.5 47.5z" />
<glyph unicode="o" horiz-adv-x="1114" d="M92 426v201q0 225 122 350t343 125t343 -119t122 -336v-201q0 -225 -122 -350t-343 -125t-343 119t-122 336zM336 457q0 -279 221 -279t221 279v159q0 279 -221 279t-221 -279v-159z" />
<glyph unicode="p" horiz-adv-x="1132" d="M113 -291v905q0 236 109.5 362t350.5 126q223 0 345 -114t122 -320v-193q0 -225 -108.5 -345t-313.5 -120q-172 0 -262 92v-393q0 -35 -12 -47t-53 -12h-113q-41 0 -53 12t-12 47zM352 500q0 -283 221 -283q223 0 224 281v129q0 141 -53.5 205.5t-170.5 64.5 q-115 0 -168 -64.5t-53 -205.5v-127z" />
<glyph unicode="q" horiz-adv-x="1132" d="M92 467v170q0 100 27.5 186t86 147.5t145.5 96.5t208 35q94 0 178 -23.5t146.5 -75t99.5 -131t37 -192.5v-971q0 -37 -13.5 -48t-52.5 -11h-112q-39 0 -52.5 11t-13.5 48v395q-90 -92 -262 -92q-205 0 -313.5 117t-108.5 338zM336 500q0 -281 223 -281q221 0 221 281v127 q0 143 -55 206.5t-166 63.5q-113 0 -168 -63.5t-55 -206.5v-127z" />
<glyph unicode="r" horiz-adv-x="753" d="M133 59v955q0 35 12.5 47t53.5 12h108q41 0 53.5 -12t12.5 -47v-99q35 68 104.5 113t147.5 45h45q31 0 41 -11t10 -46v-111q0 -35 -10.5 -46t-40.5 -11h-58q-104 0 -169.5 -68.5t-65.5 -181.5v-539q0 -35 -12.5 -47t-53.5 -12h-112q-41 0 -53.5 12.5t-12.5 46.5z" />
<glyph unicode="s" horiz-adv-x="1001" d="M76 270q0 45 55 45h127q49 0 55 -39q10 -61 54.5 -88.5t136.5 -27.5q96 0 137 27.5t41 93.5q0 33 -8 55t-28.5 39.5t-58.5 31t-95 29.5l-136 35q-266 70 -266 283v28q0 152 107.5 236t300.5 84q231 0 340 -103q75 -73 75 -181q0 -32 -13 -42t-52 -10h-107q-35 0 -47 8 t-16 33q-16 111 -195 111q-78 0 -119.5 -31t-41.5 -88q0 -51 36.5 -80t135.5 -55l174 -46q254 -68 254 -290v-41q0 -150 -107.5 -233t-304.5 -83q-242 0 -354 107q-80 76 -80 192z" />
<glyph unicode="t" horiz-adv-x="741" d="M35 930v86q0 35 10 46t41 11h109v242q0 37 13 48t52 11h113q39 0 52 -11t13 -48v-242h187q31 0 41 -11t10 -46v-86q0 -35 -10.5 -46.5t-40.5 -11.5h-187v-514q0 -78 25.5 -112.5t87.5 -34.5h74q31 0 41 -11.5t10 -45.5v-97q0 -35 -9.5 -46t-41.5 -11h-115 q-90 0 -150.5 22.5t-97.5 64.5t-52 101.5t-15 133.5v550h-109q-31 0 -41 11.5t-10 46.5z" />
<glyph unicode="u" horiz-adv-x="1120" d="M123 342v672q0 37 13.5 48t51.5 11h113q39 0 52.5 -11t13.5 -48v-635q0 -94 36.5 -144.5t135.5 -50.5q96 0 150 60.5t54 169.5v600q0 37 13.5 48t52.5 11h113q39 0 52 -11t13 -48v-955q0 -37 -13 -48t-52 -11h-109q-39 0 -52 11.5t-13 47.5v41q-49 -61 -123 -95t-166 -34 q-172 0 -254 98.5t-82 272.5z" />
<glyph unicode="v" horiz-adv-x="1011" d="M14 1038q0 35 49 35h142q33 0 46 -12t25 -49l232 -754l235 756q10 35 24.5 47t49.5 12h131q49 0 49 -35q0 -8 -10 -39l-325 -958q-10 -29 -22.5 -35t-45.5 -6h-176q-35 0 -47.5 6t-22.5 35l-323 958q-10 31 -11 39z" />
<glyph unicode="w" horiz-adv-x="1472" d="M14 1036q0 37 49 37h130q31 0 46 -11t23 -46l172 -758l176 729q8 31 18.5 38t43.5 7h127q33 0 46 -7t21 -38l172 -731l172 760q8 35 23.5 46t46.5 11h129q49 0 49 -37q0 -12 -6 -30l-264 -965q-8 -29 -21.5 -35t-46.5 -6h-164q-33 0 -47 6t-20 35l-154 707l-157 -707 q-6 -29 -20.5 -35t-47.5 -6h-158q-33 0 -46 6t-21 35l-265 965q-6 18 -6 30z" />
<glyph unicode="x" horiz-adv-x="960" d="M14 35q0 14 17 37l311 493l-293 436q-14 20 -14 37q0 35 49 35h154q31 0 46 -12t31 -39l170 -285l177 287q16 27 31.5 38t45.5 11h140q49 0 49 -35q0 -16 -15 -37l-297 -436l316 -493q14 -20 14 -37q0 -35 -49 -35h-158q-31 0 -46 11.5t-31 37.5l-189 332l-186 -330 q-16 -27 -31.5 -39t-46.5 -12h-146q-49 0 -49 35z" />
<glyph unicode="y" horiz-adv-x="1003" d="M14 1036q0 37 49 37h138q29 0 43 -11t26 -44l244 -664l221 668q10 31 24.5 41t45.5 10h135q49 0 49 -35q0 -12 -6 -26l-373 -1028q-37 -98 -71.5 -163t-79.5 -102.5t-106.5 -53t-151.5 -15.5h-49q-31 0 -41.5 11t-10.5 46v96q0 35 10.5 46.5t41.5 11.5h16q51 0 84 6 t55.5 23.5t40 47t35.5 76.5l16 39l-379 957q-6 14 -6 26z" />
<glyph unicode="z" horiz-adv-x="972" d="M68 53v101q0 33 20 59l512 655h-455q-33 0 -40 10.5t-7 43.5v98q0 33 7.5 43t39.5 10h699q33 0 40 -10t7 -43v-100q0 -33 -21 -60l-512 -655h506q33 0 40 -10.5t7 -42.5v-99q0 -33 -7 -43t-40 -10h-749q-33 0 -40 10t-7 43z" />
<glyph unicode="{" horiz-adv-x="772" d="M61 496v112q0 35 9.5 46.5t42.5 11.5h37q51 0 76.5 34.5t25.5 77.5v355q0 92 21.5 154.5t65.5 100t112.5 54t164.5 16.5h43q33 0 42.5 -11t9.5 -46v-111q0 -35 -10.5 -46t-41.5 -11h-22q-45 0 -72.5 -6t-43 -22.5t-21.5 -43t-6 -65.5v-336q0 -74 -28 -124t-83 -85 q55 -35 83 -85t28 -124v-330q0 -41 6 -66.5t21.5 -42t43 -22.5t72.5 -6h22q31 0 41.5 -11t10.5 -46v-111q0 -35 -9.5 -46t-42.5 -11h-43q-96 0 -164.5 16.5t-112.5 54t-65.5 100t-21.5 154.5v351q0 43 -25.5 77.5t-76.5 34.5h-37q-31 0 -41.5 11.5t-10.5 46.5z" />
<glyph unicode="|" horiz-adv-x="575" d="M178 -299v1706q0 31 11.5 41t46.5 10h104q35 0 46 -9t11 -42v-1706q0 -33 -11 -42t-46 -9h-104q-35 0 -46.5 10t-11.5 41z" />
<glyph unicode="}" horiz-adv-x="772" d="M61 -182q0 35 10.5 46t41.5 11h22q88 0 116 28.5t28 108.5v336q0 74 27.5 124t82.5 85q-55 35 -82.5 85t-27.5 124v330q0 80 -28 108.5t-116 28.5h-22q-31 0 -41.5 11t-10.5 46v111q0 35 9.5 46t42.5 11h43q94 0 163.5 -16.5t113.5 -54t65.5 -100t21.5 -154.5v-351 q0 -43 25.5 -77.5t77.5 -34.5h36q31 0 41.5 -11.5t10.5 -46.5v-112q0 -35 -9.5 -46.5t-42.5 -11.5h-36q-51 0 -77 -34.5t-26 -77.5v-355q0 -92 -21.5 -154.5t-65.5 -100t-113.5 -54t-163.5 -16.5h-43q-33 0 -42.5 11t-9.5 46v111z" />
<glyph unicode="~" d="M115 498v82q0 297 239 297q66 0 115 -20.5t115 -74.5l133 -108q43 -35 84 -35q47 0 47 78v94q0 31 11 41t46 10h90q35 0 46.5 -10t11.5 -41v-82q0 -297 -240 -297q-66 0 -115 20.5t-114 73.5l-133 109q-43 35 -84 35q-47 0 -48 -78v-94q0 -31 -11 -41.5t-46 -10.5h-90 q-35 0 -46 10.5t-11 41.5z" />
<glyph unicode="&#xa1;" horiz-adv-x="614" d="M158 954v50q0 61 40.5 97t108.5 36t109 -36t41 -97v-50q0 -61 -41 -97t-109 -36t-108.5 36t-40.5 97zM168 -291q0 20 1 56t3 69l27 770q2 37 14 48.5t51 11.5h82q39 0 51.5 -11.5t14.5 -48.5l26 -770q2 -33 3 -68.5t1 -56.5q0 -37 -13 -48t-52 -11h-144q-39 0 -52 11 t-13 48z" />
<glyph unicode="&#xa2;" d="M143 426v201q0 219 101.5 339.5t300.5 133.5v182q0 25 24 25h64q25 0 24 -25v-184q180 -16 281 -117q88 -88 88 -231q0 -33 -13.5 -44.5t-51.5 -11.5h-107q-35 0 -48 9.5t-18 33.5q-12 68 -41.5 106t-89.5 48v-707q106 25 131 152q4 25 17.5 34t48.5 9h107q39 0 52 -11.5 t13 -43.5q0 -143 -88 -232q-100 -100 -281 -117v-188q0 -25 -24 -25h-64q-25 0 -24 25v186q-199 10 -300.5 126t-101.5 327zM387 457q0 -135 36 -201t122 -76v713q-86 -12 -122 -76.5t-36 -200.5v-159z" />
<glyph unicode="&#xa3;" d="M82 657v60q0 35 9 46t42 11h68v193q0 80 21.5 158.5t72.5 141t138 100.5t216 38q117 0 198 -25.5t144 -85.5q43 -41 69.5 -103.5t26.5 -127.5q0 -29 -12 -38t-49 -9h-121q-33 0 -44 8t-15 31q-16 86 -63.5 116.5t-129.5 30.5q-111 0 -156.5 -57.5t-45.5 -194.5v-176h327 q33 0 42 -11t9 -46v-60q0 -35 -10 -46t-41 -11h-327v-379h567q37 0 48 -13t11 -52v-90q0 -39 -11 -52.5t-48 -13.5h-752q-39 0 -52 11.5t-13 47.5v541h-68q-31 0 -41 11.5t-10 45.5z" />
<glyph unicode="&#xa4;" d="M55 291q0 14 21 35l108 108q-69 111 -69 254t69 254l-108 111q-20 20 -21 34q0 18 25 41l65 66q23 25 41 25q14 0 35 -21l109 -111q115 70 254 70q72 0 135 -18.5t117 -53.5l112 113q20 20 35 21q18 0 41 -25l66 -66q25 -23 24 -41q0 -14 -20 -34l-111 -111 q70 -111 70 -254t-70 -254l111 -108q20 -20 20 -35q0 -18 -24 -41l-66 -66q-23 -25 -41 -24q-14 0 -35 20l-110 109q-111 -70 -254 -70q-139 0 -254 70l-109 -109q-20 -20 -35 -20q-18 0 -41 24l-65 66q-25 23 -25 41zM326 686q0 -59 19.5 -107.5t54 -84t80.5 -55t102 -19.5 q55 0 103 19.5t83 55t54.5 84t19.5 107.5q0 121 -74 195.5t-186 74.5q-55 0 -101.5 -20.5t-81 -57t-54 -86t-19.5 -106.5z" />
<glyph unicode="&#xa5;" d="M35 1343q0 33 51 33h154q35 0 47 -9t28 -38l277 -553l272 553q14 29 27.5 38t48.5 9h141q51 0 52 -33q0 -14 -7 -26l-350 -641h246q25 0 25 -25v-78q0 -25 -25 -24h-313v-123h313q25 0 25 -25v-77q0 -25 -25 -25h-313v-240q0 -37 -13.5 -48t-52.5 -11h-119 q-39 0 -52 11.5t-13 47.5v240h-266q-25 0 -25 25v77q0 25 25 25h266v123h-266q-25 0 -25 24v78q0 25 25 25h196l-348 641q-6 12 -6 26z" />
<glyph unicode="&#xa6;" horiz-adv-x="575" d="M178 260q0 31 11.5 41t46.5 10h104q35 0 46 -9t11 -42v-559q0 -33 -11 -42t-46 -9h-104q-35 0 -46.5 10t-11.5 41v559zM178 848v559q0 31 11.5 41t46.5 10h104q35 0 46 -9t11 -42v-559q0 -33 -11 -42t-46 -9h-104q-35 0 -46.5 10t-11.5 41z" />
<glyph unicode="&#xa7;" horiz-adv-x="1030" d="M92 272q0 45 55 45h127q49 0 56 -38q10 -61 54 -89t136 -28q96 0 137 27.5t41 93.5q0 27 -8 47t-28.5 35.5t-58.5 28t-95 24.5l-135 31q-131 29 -199 94t-68 159v19q0 70 31 125t86 96q-59 41 -88 97.5t-29 119.5v8q0 152 108 236t300 84q231 0 340 -103q76 -74 76 -184 q0 -29 -13.5 -39t-52.5 -10h-106q-35 0 -47.5 8t-16.5 33q-16 111 -194 111q-78 0 -120 -31t-42 -88q0 -49 37 -77t135 -50l174 -39q127 -29 190.5 -95.5t63.5 -166.5v-21q0 -68 -30.5 -120t-88.5 -89q59 -41 89 -96t30 -121v-20q0 -150 -107.5 -234t-304.5 -84 q-240 0 -354 109q-80 76 -80 192zM338 741q0 -41 23.5 -66.5t84.5 -39.5l82 -19q25 -6 45 -6q61 0 93 37t32 86q0 41 -23.5 66.5t-84.5 40.5l-82 18q-25 6 -45 6q-61 0 -93 -37t-32 -86z" />
<glyph unicode="&#xa8;" horiz-adv-x="1024" d="M193 1350v41q0 55 34.5 84.5t96.5 29.5q61 0 96 -29.5t35 -84.5v-41q0 -53 -35 -84t-96 -31t-96 30.5t-35 84.5zM569 1350v41q0 55 35 84.5t96 29.5t96 -29.5t35 -84.5v-41q0 -53 -35 -84t-96 -31t-96 30.5t-35 84.5z" />
<glyph unicode="&#xa9;" horiz-adv-x="1712" d="M94 729q0 166 56.5 306.5t158 241.5t241.5 157.5t306 56.5t306.5 -56.5t241.5 -157.5t157.5 -241.5t56.5 -306.5t-56.5 -306t-157.5 -241.5t-241.5 -158t-306.5 -56.5t-306 56.5t-241.5 158t-158 241.5t-56.5 306zM281 729q0 -129 42 -237.5t117.5 -185.5t181 -120 t232.5 -43q129 0 235.5 43t182.5 120t118 185.5t42 237.5t-42 237.5t-118 185.5t-182.5 120t-235.5 43q-127 0 -232.5 -43t-181 -120t-117.5 -185.5t-42 -237.5zM520 645v150q0 115 35 190q41 82 119 125t188 43q164 0 244 -80q37 -35 52.5 -76t15.5 -102q0 -23 -9.5 -30 t-36.5 -7h-84q-27 0 -35 6t-10 29q-12 109 -147 108q-84 0 -119 -50t-35 -171v-106q0 -117 35 -166t121 -49q63 0 104 30.5t46 81.5q2 23 10 29t35 6h79q27 0 36.5 -7t9.5 -30q0 -102 -78 -178q-43 -41 -104.5 -62.5t-139.5 -21.5q-106 0 -183 40t-116 118q-16 35 -24.5 81 t-8.5 99z" />
<glyph unicode="&#xaa;" horiz-adv-x="743" d="M70 950q0 117 72.5 176.5t209.5 59.5q39 0 69 -2t58 -6v41q0 63 -23.5 88.5t-80.5 25.5q-43 0 -65.5 -12t-39.5 -47q-10 -16 -39 -17h-98q-37 0 -37 29q0 47 43 94q76 78 236 78q141 0 205.5 -53t64.5 -170v-268q0 -236 -264 -236h-39q-272 0 -272 219zM238 956 q0 -94 108 -94h21q66 0 89 29t23 106v50q-27 4 -50 6t-58 2q-72 0 -102.5 -22.5t-30.5 -76.5z" />
<glyph unicode="&#xab;" horiz-adv-x="1103" d="M72 532v107q0 16 6 27.5t22 25.5l398 326q14 12 28 12t22.5 -9t8.5 -34v-123q0 -35 -9 -50t-50 -48l-213 -180l213 -180q20 -16 32.5 -27.5t18.5 -21t7 -20.5t1 -30v-123q0 -25 -8 -34t-23 -9q-14 0 -28 13l-398 325q-16 14 -22 25.5t-6 27.5zM547 532v107q0 16 6 27.5 t22 25.5l398 326q14 12 28 12t22.5 -9t8.5 -34v-123q0 -35 -9 -50t-50 -48l-213 -180l213 -180q20 -16 32.5 -27.5t18.5 -21t7 -20.5t1 -30v-123q0 -25 -8 -34t-23 -9q-14 0 -28 13l-398 325q-16 14 -22 25.5t-6 27.5z" />
<glyph unicode="&#xac;" d="M115 721v98q0 35 9 46.5t42 11.5h835q33 0 42.5 -11.5t9.5 -46.5v-461q0 -33 -11.5 -42t-46.5 -9h-98q-35 0 -46 10.5t-11 40.5v306h-674q-31 0 -41 11t-10 46z" />
<glyph unicode="&#xad;" horiz-adv-x="794" d="M78 494v112q0 39 11 52.5t48 13.5h520q37 0 48.5 -13.5t11.5 -52.5v-112q0 -39 -11.5 -52.5t-48.5 -13.5h-520q-37 0 -48 13.5t-11 52.5z" />
<glyph unicode="&#xae;" horiz-adv-x="1069" d="M94 1079q0 96 33 177t91 139.5t139 91.5t178 33q96 0 177 -33t139 -91.5t91 -139t33 -177.5q0 -96 -33 -177t-91 -139t-139 -91t-177 -33t-177.5 33t-139.5 91t-91 139t-33 177zM227 1079q0 -72 22.5 -130t63.5 -100t97.5 -65.5t124.5 -23.5t124 23.5t97 65.5t63.5 100.5 t22.5 129.5q0 70 -22.5 129.5t-63.5 101.5t-97 65.5t-124 23.5t-124.5 -23.5t-97.5 -65.5t-63.5 -101.5t-22.5 -129.5zM373 893v389q0 23 8 29t31 6h129q84 0 121.5 -34t37.5 -109v-9q0 -94 -69 -125l86 -147l5 -10t1 -6q0 -18 -33 -19h-41q-20 0 -29.5 6t-21.5 29l-76 131 h-45v-131q0 -23 -8 -29t-31 -6h-26q-23 0 -31 6t-8 29zM477 1116h62q53 0 53 53q0 55 -53 56h-62v-109z" />
<glyph unicode="&#xaf;" horiz-adv-x="1024" d="M180 1298v78q0 35 10.5 46.5t40.5 11.5h562q31 0 41 -11.5t10 -46.5v-78q0 -35 -10.5 -46t-40.5 -11h-562q-31 0 -41 11.5t-10 45.5z" />
<glyph unicode="&#xb0;" horiz-adv-x="745" d="M61 1171q0 63 25 121t67 100t98 66.5t122 24.5q63 0 120.5 -24.5t99.5 -66.5t66.5 -100t24.5 -121q0 -66 -24.5 -122t-66.5 -98t-99.5 -66.5t-120.5 -24.5q-66 0 -122 24.5t-98 66.5t-67 98.5t-25 121.5zM242 1171q0 -59 37.5 -99t93.5 -40q55 0 93 40t38 99t-38 99.5 t-93 40.5t-93 -40.5t-38 -99.5z" />
<glyph unicode="&#xb1;" d="M115 59v98q0 35 9 46.5t42 11.5h835q33 0 42.5 -11.5t9.5 -46.5v-98q0 -35 -10.5 -46t-41.5 -11h-835q-31 0 -41 11t-10 46zM115 725v98q0 35 9 46.5t42 11.5h311v319q0 31 11.5 41t46.5 10h98q35 0 46 -9t11 -42v-319h311q33 0 42.5 -11.5t9.5 -46.5v-98 q0 -35 -10.5 -46t-41.5 -11h-311v-320q0 -33 -11 -42t-46 -9h-98q-35 0 -46.5 10t-11.5 41v320h-311q-31 0 -41 11t-10 46z" />
<glyph unicode="&#xb2;" horiz-adv-x="819" d="M80 889v49q0 100 66.5 171t191.5 136l61 33q41 23 77 53.5t36 83.5v9q0 49 -26.5 70.5t-88.5 21.5q-59 0 -87.5 -21.5t-39.5 -77.5q-4 -20 -15 -27t-38 -7h-78q-31 0 -43 10t-12 39q0 41 19.5 83t48.5 68q49 45 109.5 63.5t144.5 18.5q145 0 222 -59t77 -172v-35 q0 -43 -17.5 -80t-46.5 -67.5t-67.5 -57t-81.5 -49.5l-62 -33q-57 -31 -87 -53t-44 -59h352q31 0 42.5 -11.5t11.5 -37.5v-58q0 -29 -11.5 -40t-42.5 -11h-516q-29 0 -42 9t-13 38z" />
<glyph unicode="&#xb3;" horiz-adv-x="819" d="M82 1041q0 29 13.5 39t41.5 10h76q29 0 39 -8.5t14 -26.5q8 -39 39 -60.5t105 -21.5t104.5 32t30.5 73v14q0 53 -34 76.5t-95 23.5h-49q-29 0 -37 10.5t-8 32.5v64q0 23 8 31t37 8h32q135 0 136 86v12q0 86 -119 86q-66 0 -98.5 -20.5t-43.5 -67.5q-6 -35 -55 -35h-69 q-31 0 -43.5 10.5t-12.5 38.5q0 39 16.5 76t47.5 63q47 41 111.5 59.5t156.5 18.5q145 0 222 -56t77 -163v-24q0 -53 -29.5 -89t-87.5 -63q59 -23 94 -61.5t35 -108.5v-33q0 -104 -83 -172.5t-238 -68.5q-98 0 -164 19.5t-107 53.5q-33 29 -48 68t-15 74z" />
<glyph unicode="&#xb4;" horiz-adv-x="1024" d="M318 1235q0 8 16 37l92 160q27 43 41 53t53 10h146q39 0 39 -25q0 -14 -17 -36l-112 -158q-16 -23 -27.5 -36t-21 -19.5t-20.5 -8.5t-28 -2h-122q-39 0 -39 25z" />
<glyph unicode="&#xb5;" horiz-adv-x="1130" d="M133 -291v1305q0 37 13.5 48t52.5 11h112q39 0 52.5 -11t13.5 -48v-635q0 -94 37 -144.5t135 -50.5q96 0 150.5 60.5t54.5 169.5v600q0 37 13 48t52 11h113q39 0 52 -11t13 -48v-955q0 -37 -13 -48t-52 -11h-109q-39 0 -52 11.5t-13 47.5v70q-39 -74 -97.5 -116 t-130.5 -42q-92 0 -153 66v-328q0 -35 -12.5 -47t-53.5 -12h-112q-41 0 -53.5 12t-12.5 47z" />
<glyph unicode="&#xb6;" horiz-adv-x="1435" d="M111 993v39q0 233 118.5 329.5t350.5 96.5h667q37 0 48.5 -13t11.5 -52v-90q0 -39 -11.5 -52.5t-48.5 -13.5h-78v-1528q0 -37 -13 -48t-52 -11h-111q-39 0 -52 11t-13 48v1528h-178v-1528q0 -37 -13.5 -48t-52.5 -11h-111q-39 0 -52 11t-13 48v873q-199 14 -298 113.5 t-99 297.5z" />
<glyph unicode="&#xb7;" horiz-adv-x="569" d="M119 528v49q0 70 45 110t121 40t121 -40t45 -110v-49q0 -70 -45.5 -110t-120.5 -40q-76 0 -121 40t-45 110z" />
<glyph unicode="&#xb8;" horiz-adv-x="1024" d="M304 -293q0 35 10 46t41 11h86q51 0 71.5 20.5t20.5 78.5q0 10 -2 34.5t-8 77.5l-13 105h185l10 -88q8 -63 12 -114.5t4 -84.5q0 -96 -64.5 -148.5t-182.5 -52.5h-119q-31 0 -41 11.5t-10 46.5v57z" />
<glyph unicode="&#xb9;" horiz-adv-x="819" d="M168 1538v60q0 29 11 40t42 11h258q31 0 42 -11.5t11 -39.5v-711q0 -29 -14 -37t-43 -8h-76q-29 0 -42 8t-13 37v602h-123q-31 0 -42 11.5t-11 37.5z" />
<glyph unicode="&#xba;" horiz-adv-x="761" d="M72 1034v113q0 147 82 229t227 82t227 -80t82 -221v-113q0 -147 -82 -229t-227 -82t-227 80t-82 221zM240 1055q0 -92 33.5 -134t107.5 -42t107.5 42t33.5 134v82q0 92 -33.5 134t-107.5 42t-107.5 -42t-33.5 -134v-82z" />
<glyph unicode="&#xbb;" horiz-adv-x="1103" d="M72 184v123q0 18 1 29.5t7 21t18.5 20.5t32.5 28l213 180l-213 180q-41 33 -50 48t-9 50v123q0 25 8 34t22 9t29 -12l397 -326q16 -14 22.5 -25.5t6.5 -27.5v-107q0 -16 -6 -27t-23 -26l-397 -325q-14 -12 -29 -13q-14 0 -22 9.5t-8 33.5zM547 184v123q0 18 1 29.5t7 21 t18.5 20.5t32.5 28l213 180l-213 180q-41 33 -50 48t-9 50v123q0 25 8 34t22 9t29 -12l397 -326q16 -14 22.5 -25.5t6.5 -27.5v-107q0 -16 -6 -27t-23 -26l-397 -325q-14 -12 -29 -13q-14 0 -22 9.5t-8 33.5z" />
<glyph unicode="&#xbc;" horiz-adv-x="1832" d="M168 1265v60q0 29 11 40t42 11h258q31 0 42 -11.5t11 -39.5v-711q0 -29 -14 -37t-43 -8h-76q-29 0 -42 8t-13 37v602h-123q-31 0 -42 11.5t-11 37.5zM461 18q0 8 12 33l672 1276q16 33 26.5 41t33.5 8h129q31 0 30 -18q0 -8 -12 -33l-672 -1276q-16 -33 -22 -41t-29 -8 h-137q-31 0 -31 18zM1090 188v107q0 33 18 61l297 416q12 16 23.5 25.5t36.5 9.5h141q29 0 43 -8t14 -37v-467h51q29 0 37 -10.5t8 -32.5v-64q0 -23 -8 -33t-37 -10h-51v-98q0 -29 -14 -38t-43 -9h-66q-29 0 -42 9t-13 38v98h-352q-29 0 -36 10.5t-7 32.5zM1252 295h233v330 z" />
<glyph unicode="&#xbd;" horiz-adv-x="1832" d="M168 1265v60q0 29 11 40t42 11h258q31 0 42 -11.5t11 -39.5v-711q0 -29 -14 -37t-43 -8h-76q-29 0 -42 8t-13 37v602h-123q-31 0 -42 11.5t-11 37.5zM409 18q0 8 12 33l672 1276q16 33 26.5 41t33.5 8h129q31 0 30 -18q0 -8 -12 -33l-672 -1276q-16 -33 -22 -41t-29 -8 h-137q-31 0 -31 18zM1094 47v49q0 100 66.5 171t191.5 136l61 33q41 23 77 53.5t36 83.5v9q0 49 -26.5 70.5t-88.5 21.5q-59 0 -87.5 -21.5t-39.5 -77.5q-4 -20 -15 -27t-38 -7h-78q-31 0 -43 10t-12 39q0 41 19.5 83t48.5 68q49 45 109.5 63.5t144.5 18.5q145 0 222 -59 t77 -172v-35q0 -43 -17.5 -80t-46.5 -67.5t-67.5 -57t-81.5 -49.5l-62 -33q-57 -31 -87 -53t-44 -59h352q31 0 42.5 -11.5t11.5 -37.5v-58q0 -29 -11.5 -40t-42.5 -11h-516q-29 0 -42 9t-13 38z" />
<glyph unicode="&#xbe;" horiz-adv-x="1832" d="M82 768q0 29 13.5 39t41.5 10h76q29 0 39 -8.5t14 -26.5q8 -39 39 -60.5t105 -21.5t104.5 32t30.5 73v14q0 53 -34 76.5t-95 23.5h-49q-29 0 -37 10.5t-8 32.5v64q0 23 8 31t37 8h32q135 0 136 86v12q0 86 -119 86q-66 0 -98.5 -20.5t-43.5 -67.5q-6 -35 -55 -35h-69 q-31 0 -43.5 10.5t-12.5 38.5q0 39 16.5 76t47.5 63q47 41 111.5 59.5t156.5 18.5q145 0 222 -56t77 -163v-24q0 -53 -29.5 -89t-87.5 -63q59 -23 94 -61.5t35 -108.5v-33q0 -104 -83 -172.5t-238 -68.5q-98 0 -164 19.5t-107 53.5q-33 29 -48 68t-15 74zM512 18q0 8 12 33 l672 1276q16 33 26.5 41t33.5 8h129q31 0 30 -18q0 -8 -12 -33l-672 -1276q-16 -33 -22 -41t-29 -8h-137q-31 0 -31 18zM1090 188v107q0 33 18 61l297 416q12 16 23.5 25.5t36.5 9.5h141q29 0 43 -8t14 -37v-467h51q29 0 37 -10.5t8 -32.5v-64q0 -23 -8 -33t-37 -10h-51v-98 q0 -29 -14 -38t-43 -9h-66q-29 0 -42 9t-13 38v98h-352q-29 0 -36 10.5t-7 32.5zM1252 295h233v330z" />
<glyph unicode="&#xbf;" horiz-adv-x="1089" d="M125 10q0 106 48 184t159 150l57 37q45 29 58.5 54.5t13.5 84.5v84q0 35 12 47.5t53 12.5h101q39 0 51 -12.5t12 -47.5v-84q0 -59 -8 -102t-27.5 -79t-51.5 -66.5t-81 -61.5l-57 -37q-47 -33 -66.5 -69.5t-19.5 -98.5v-18q0 -80 49 -124t137 -44q98 0 148.5 41t64.5 135 q4 25 16.5 34t45.5 9h116q39 0 52.5 -12.5t13.5 -51.5q0 -61 -23.5 -119.5t-66.5 -101.5q-66 -68 -157 -98.5t-226 -30.5q-201 0 -312.5 94.5t-111.5 264.5v26zM426 954v50q0 61 40.5 97t108.5 36t109 -36t41 -97v-50q0 -61 -41 -97t-109 -36t-108.5 36t-40.5 97z" />
<glyph unicode="&#xc0;" horiz-adv-x="1280" d="M20 37q0 6 5 22l460 1362q8 25 22.5 31t43.5 6h184q29 0 43.5 -6t22.5 -31l454 -1362q4 -16 5 -22q0 -37 -46 -37h-143q-39 0 -50 11.5t-24 47.5l-94 289h-536l-93 -291q-12 -37 -23 -47t-50 -10h-135q-45 0 -46 37zM371 1810q0 25 43 25h161q20 0 35 -2t26 -8 t21.5 -18.5t24.5 -32.5l100 -150q8 -10 13.5 -20.5t5.5 -16.5q0 -25 -39 -24h-139q-20 0 -33 2t-23 8t-22.5 18.5t-30.5 34.5l-125 150q-18 25 -18 34zM434 561h400l-201 623z" />
<glyph unicode="&#xc1;" horiz-adv-x="1280" d="M20 37q0 6 5 22l460 1362q8 25 22.5 31t43.5 6h184q29 0 43.5 -6t22.5 -31l454 -1362q4 -16 5 -22q0 -37 -46 -37h-143q-39 0 -50 11.5t-24 47.5l-94 289h-536l-93 -291q-12 -37 -23 -47t-50 -10h-135q-45 0 -46 37zM434 561h400l-201 623zM518 1587q0 6 5 16.5t14 20.5 l100 150q27 41 45 51t61 10h162q43 0 43 -25q0 -10 -18 -34l-125 -150q-18 -23 -30.5 -35t-23 -18t-22.5 -8t-33 -2h-139q-39 0 -39 24z" />
<glyph unicode="&#xc2;" horiz-adv-x="1280" d="M20 37q0 6 5 22l460 1362q8 25 22.5 31t43.5 6h184q29 0 43.5 -6t22.5 -31l454 -1362q4 -16 5 -22q0 -37 -46 -37h-143q-39 0 -50 11.5t-24 47.5l-94 289h-536l-93 -291q-12 -37 -23 -47t-50 -10h-135q-45 0 -46 37zM305 1585q0 6 6 14.5t25 26.5l155 150 q18 18 30.5 29.5t23 16.5t20.5 7t25 2h106q27 0 44.5 -9.5t54.5 -45.5l155 -150q18 -18 24.5 -26.5t6.5 -14.5q0 -23 -35 -22h-143q-29 0 -45.5 8t-55.5 49l-59 61l-59 -61q-18 -20 -30.5 -31.5t-23 -17.5t-20.5 -7t-27 -1h-143q-35 0 -35 22zM434 561h400l-201 623z" />
<glyph unicode="&#xc3;" horiz-adv-x="1280" d="M20 37q0 6 5 22l460 1362q8 25 22.5 31t43.5 6h184q29 0 43.5 -6t22.5 -31l454 -1362q4 -16 5 -22q0 -37 -46 -37h-143q-39 0 -50 11.5t-24 47.5l-94 289h-536l-93 -291q-12 -37 -23 -47t-50 -10h-135q-45 0 -46 37zM287 1597v17q0 113 45 164t133 51q35 0 65.5 -7 t83.5 -24l117 -41q12 -4 26.5 -8t30.5 -4q37 0 37 49v10q0 18 7.5 24.5t23.5 6.5h104q31 0 31 -31v-16q0 -113 -45 -164t-133 -51q-35 0 -65.5 7t-81.5 24l-123 41q-12 4 -25.5 8t-28.5 4q-37 0 -36 -49v-11q0 -18 -7.5 -24t-23.5 -6h-105q-31 0 -30 30zM434 561h400 l-201 623z" />
<glyph unicode="&#xc4;" horiz-adv-x="1280" d="M20 37q0 6 5 22l460 1362q8 25 22.5 31t43.5 6h184q29 0 43.5 -6t22.5 -31l454 -1362q4 -16 5 -22q0 -37 -46 -37h-143q-39 0 -50 11.5t-24 47.5l-94 289h-536l-93 -291q-12 -37 -23 -47t-50 -10h-135q-45 0 -46 37zM305 1702v41q0 55 37 87t98 32t98 -32t37 -87v-41 q0 -53 -37 -86t-98 -33t-98 33t-37 86zM434 561h400l-201 623zM711 1702v41q0 55 36.5 87t98.5 32q61 0 98 -32t37 -87v-41q0 -53 -37 -86t-98 -33t-98 33t-37 86z" />
<glyph unicode="&#xc5;" horiz-adv-x="1280" d="M20 37q0 6 5 22l460 1362q8 25 22.5 31t43.5 6h184q29 0 43.5 -6t22.5 -31l454 -1362q4 -16 5 -22q0 -37 -46 -37h-143q-39 0 -50 11.5t-24 47.5l-94 289h-536l-93 -291q-12 -37 -23 -47t-50 -10h-135q-45 0 -46 37zM422 1555q0 94 61.5 154.5t159.5 60.5t159.5 -58.5 t61.5 -156.5t-61.5 -155.5t-159.5 -57.5t-159.5 57.5t-61.5 155.5zM434 561h400l-201 623zM551 1555q0 -43 25.5 -69t66.5 -26t66.5 26t25.5 69q0 45 -25.5 70.5t-66.5 25.5t-66.5 -26.5t-25.5 -69.5z" />
<glyph unicode="&#xc6;" horiz-adv-x="1910" d="M20 35q0 12 11 33l710 1329q20 39 36 50t52 11h904q37 0 48 -13t11 -52v-90q0 -39 -11.5 -52.5t-47.5 -13.5h-580v-377h526q37 0 48.5 -13t11.5 -52v-90q0 -39 -11.5 -52.5t-48.5 -13.5h-526v-418h588q37 0 48 -13t11 -52v-90q0 -39 -11 -52.5t-48 -13.5h-772 q-39 0 -52.5 11.5t-13.5 47.5v289h-465l-149 -287q-10 -20 -19.5 -32.5t-18.5 -18.5t-20.5 -8t-29.5 -2h-133q-47 0 -48 35zM549 561h354v676z" />
<glyph unicode="&#xc7;" horiz-adv-x="1234" d="M111 569v299q0 111 11 184.5t36 139.5q55 145 181 222t312 77q262 0 389 -137q59 -63 84 -137t25 -179q0 -33 -13.5 -44t-52.5 -11h-127q-37 0 -50 10.5t-15 40.5q-4 129 -61.5 184.5t-190.5 55.5q-150 0 -211 -85t-61 -288v-344q0 -197 62.5 -284t207.5 -87 q129 0 191.5 59.5t66.5 184.5q2 31 15.5 41t50.5 10h122q39 0 52.5 -11t13.5 -44q0 -111 -26.5 -183.5t-88.5 -136.5q-135 -139 -409 -139q-168 0 -287 71t-180 208q-27 59 -37 131t-10 192zM350 -293q0 35 10.5 46t40.5 11h86q51 0 68.5 20.5t17.5 78.5q0 14 -2 41.5 t-6 70.5l-12 105h188l12 -105q6 -49 10.5 -97t4.5 -85q0 -88 -59.5 -144.5t-188.5 -56.5h-119q-31 0 -41 11.5t-10 46.5v57z" />
<glyph unicode="&#xc8;" horiz-adv-x="1155" d="M147 59v1340q0 37 13.5 48t52.5 11h764q37 0 48 -13t11 -52v-90q0 -39 -11 -52.5t-48 -13.5h-580v-377h527q37 0 48 -13t11 -52v-90q0 -39 -11 -52.5t-48 -13.5h-527v-418h588q37 0 48 -13t11 -52v-90q0 -39 -11 -52.5t-48 -13.5h-772q-39 0 -52.5 11.5t-13.5 47.5z M322 1810q0 25 43 25h161q20 0 35 -2t26 -8t21.5 -18.5t24.5 -32.5l100 -150q8 -10 13.5 -20.5t5.5 -16.5q0 -25 -39 -24h-139q-20 0 -33 2t-23 8t-22.5 18.5t-30.5 34.5l-125 150q-18 25 -18 34z" />
<glyph unicode="&#xc9;" horiz-adv-x="1155" d="M147 59v1340q0 37 13.5 48t52.5 11h764q37 0 48 -13t11 -52v-90q0 -39 -11 -52.5t-48 -13.5h-580v-377h527q37 0 48 -13t11 -52v-90q0 -39 -11 -52.5t-48 -13.5h-527v-418h588q37 0 48 -13t11 -52v-90q0 -39 -11 -52.5t-48 -13.5h-772q-39 0 -52.5 11.5t-13.5 47.5z M469 1587q0 6 5 16.5t14 20.5l100 150q27 41 45 51t61 10h162q43 0 43 -25q0 -10 -18 -34l-125 -150q-18 -23 -30.5 -35t-23 -18t-22.5 -8t-33 -2h-139q-39 0 -39 24z" />
<glyph unicode="&#xca;" horiz-adv-x="1155" d="M147 59v1340q0 37 13.5 48t52.5 11h764q37 0 48 -13t11 -52v-90q0 -39 -11 -52.5t-48 -13.5h-580v-377h527q37 0 48 -13t11 -52v-90q0 -39 -11 -52.5t-48 -13.5h-527v-418h588q37 0 48 -13t11 -52v-90q0 -39 -11 -52.5t-48 -13.5h-772q-39 0 -52.5 11.5t-13.5 47.5z M256 1585q0 6 6 14.5t25 26.5l155 150q18 18 30.5 29.5t23 16.5t20.5 7t25 2h106q27 0 44.5 -9.5t54.5 -45.5l155 -150q18 -18 24.5 -26.5t6.5 -14.5q0 -23 -35 -22h-143q-29 0 -45.5 8t-55.5 49l-59 61l-59 -61q-18 -20 -30.5 -31.5t-23 -17.5t-20.5 -7t-27 -1h-143 q-35 0 -35 22z" />
<glyph unicode="&#xcb;" horiz-adv-x="1155" d="M147 59v1340q0 37 13.5 48t52.5 11h764q37 0 48 -13t11 -52v-90q0 -39 -11 -52.5t-48 -13.5h-580v-377h527q37 0 48 -13t11 -52v-90q0 -39 -11 -52.5t-48 -13.5h-527v-418h588q37 0 48 -13t11 -52v-90q0 -39 -11 -52.5t-48 -13.5h-772q-39 0 -52.5 11.5t-13.5 47.5z M256 1702v41q0 55 37 87t98 32t98 -32t37 -87v-41q0 -53 -37 -86t-98 -33t-98 33t-37 86zM662 1702v41q0 55 36.5 87t98.5 32q61 0 98 -32t37 -87v-41q0 -53 -37 -86t-98 -33t-98 33t-37 86z" />
<glyph unicode="&#xcc;" horiz-adv-x="544" d="M0 1810q0 25 43 25h161q20 0 35 -2t26 -8t21.5 -18.5t24.5 -32.5l100 -150q8 -10 13.5 -20.5t5.5 -16.5q0 -25 -39 -24h-139q-20 0 -33 2t-23 8t-22.5 18.5t-30.5 34.5l-125 150q-18 25 -18 34zM147 59v1340q0 37 13.5 48t52.5 11h119q39 0 52 -11t13 -48v-1340 q0 -37 -13 -48t-52 -11h-119q-39 0 -52.5 11.5t-13.5 47.5z" />
<glyph unicode="&#xcd;" horiz-adv-x="544" d="M147 59v1340q0 37 13.5 48t52.5 11h119q39 0 52 -11t13 -48v-1340q0 -37 -13 -48t-52 -11h-119q-39 0 -52.5 11.5t-13.5 47.5zM147 1587q0 6 5 16.5t14 20.5l100 150q27 41 45 51t61 10h162q43 0 43 -25q0 -10 -18 -34l-125 -150q-18 -23 -30.5 -35t-23 -18t-22.5 -8 t-33 -2h-139q-39 0 -39 24z" />
<glyph unicode="&#xce;" horiz-adv-x="544" d="M-66 1585q0 6 6 14.5t25 26.5l155 150q18 18 30.5 29.5t23 16.5t20.5 7t25 2h106q27 0 44.5 -9.5t54.5 -45.5l155 -150q18 -18 24.5 -26.5t6.5 -14.5q0 -23 -35 -22h-143q-29 0 -45.5 8t-55.5 49l-59 61l-59 -61q-18 -20 -30.5 -31.5t-23 -17.5t-20.5 -7t-27 -1h-143 q-35 0 -35 22zM147 59v1340q0 37 13.5 48t52.5 11h119q39 0 52 -11t13 -48v-1340q0 -37 -13 -48t-52 -11h-119q-39 0 -52.5 11.5t-13.5 47.5z" />
<glyph unicode="&#xcf;" horiz-adv-x="544" d="M-66 1702v41q0 55 37 87t98 32t98 -32t37 -87v-41q0 -53 -37 -86t-98 -33t-98 33t-37 86zM147 59v1340q0 37 13.5 48t52.5 11h119q39 0 52 -11t13 -48v-1340q0 -37 -13 -48t-52 -11h-119q-39 0 -52.5 11.5t-13.5 47.5zM340 1702v41q0 55 36.5 87t98.5 32q61 0 98 -32 t37 -87v-41q0 -53 -37 -86t-98 -33t-98 33t-37 86z" />
<glyph unicode="&#xd0;" horiz-adv-x="1275" d="M-16 719v59q0 39 11 50.5t48 11.5h104v559q0 37 13.5 48t52.5 11h418q100 0 179 -22.5t139.5 -60.5t101.5 -88t65 -107q23 -55 36 -124t13 -186v-292q0 -115 -13 -182.5t-36 -121.5q-23 -55 -61.5 -105t-94 -88t-130 -59.5t-168.5 -21.5h-449q-39 0 -52.5 11.5 t-13.5 47.5v592h-104q-37 0 -48 14.5t-11 53.5zM397 221h230q70 0 122 17.5t87.5 58.5t54 109.5t18.5 171.5v303q0 100 -19.5 168.5t-55 109.5t-88 59.5t-119.5 18.5h-230v-397h195q37 0 47 -12.5t10 -53.5v-57q0 -39 -11 -52.5t-48 -13.5h-193v-430z" />
<glyph unicode="&#xd1;" horiz-adv-x="1306" d="M147 59v1340q0 37 13.5 48t52.5 11h119q39 0 56.5 -9t37.5 -48l489 -928v926q0 37 13.5 48t52.5 11h113q39 0 52 -11t13 -48v-1340q0 -37 -13 -48t-52 -11h-119q-39 0 -56.5 9t-37.5 48l-490 928v-926q0 -37 -13 -48t-52 -11h-113q-39 0 -52.5 11.5t-13.5 47.5zM297 1597 v17q0 113 45 164t133 51q35 0 65.5 -7t83.5 -24l117 -41q12 -4 26.5 -8t30.5 -4q37 0 37 49v10q0 18 7.5 24.5t23.5 6.5h104q31 0 31 -31v-16q0 -113 -45 -164t-133 -51q-35 0 -65.5 7t-81.5 24l-123 41q-12 4 -25.5 8t-28.5 4q-37 0 -36 -49v-11q0 -18 -7.5 -24t-23.5 -6 h-105q-31 0 -30 30z" />
<glyph unicode="&#xd2;" horiz-adv-x="1294" d="M111 569v299q0 106 11 183t36 141q59 147 183 223t306 76t306 -70.5t184 -208.5q27 -59 37 -132.5t10 -190.5v-299q0 -106 -11.5 -183t-35.5 -141q-59 -147 -183.5 -223t-306.5 -76t-306 71t-183 208q-27 59 -37 133t-10 190zM367 557q0 -199 64.5 -285t215.5 -86 q152 0 216.5 86t64.5 285v344q0 199 -64.5 285t-216.5 86t-216 -86t-64 -285v-344zM375 1810q0 25 43 25h161q20 0 35 -2t26 -8t21.5 -18.5t24.5 -32.5l100 -150q8 -10 13.5 -20.5t5.5 -16.5q0 -25 -39 -24h-139q-20 0 -33 2t-23 8t-22.5 18.5t-30.5 34.5l-125 150 q-18 25 -18 34z" />
<glyph unicode="&#xd3;" horiz-adv-x="1294" d="M111 569v299q0 106 11 183t36 141q59 147 183 223t306 76t306 -70.5t184 -208.5q27 -59 37 -132.5t10 -190.5v-299q0 -106 -11.5 -183t-35.5 -141q-59 -147 -183.5 -223t-306.5 -76t-306 71t-183 208q-27 59 -37 133t-10 190zM367 557q0 -199 64.5 -285t215.5 -86 q152 0 216.5 86t64.5 285v344q0 199 -64.5 285t-216.5 86t-216 -86t-64 -285v-344zM522 1587q0 6 5 16.5t14 20.5l100 150q27 41 45 51t61 10h162q43 0 43 -25q0 -10 -18 -34l-125 -150q-18 -23 -30.5 -35t-23 -18t-22.5 -8t-33 -2h-139q-39 0 -39 24z" />
<glyph unicode="&#xd4;" horiz-adv-x="1294" d="M111 569v299q0 106 11 183t36 141q59 147 183 223t306 76t306 -70.5t184 -208.5q27 -59 37 -132.5t10 -190.5v-299q0 -106 -11.5 -183t-35.5 -141q-59 -147 -183.5 -223t-306.5 -76t-306 71t-183 208q-27 59 -37 133t-10 190zM309 1585q0 6 6 14.5t25 26.5l155 150 q18 18 30.5 29.5t23 16.5t20.5 7t25 2h106q27 0 44.5 -9.5t54.5 -45.5l155 -150q18 -18 24.5 -26.5t6.5 -14.5q0 -23 -35 -22h-143q-29 0 -45.5 8t-55.5 49l-59 61l-59 -61q-18 -20 -30.5 -31.5t-23 -17.5t-20.5 -7t-27 -1h-143q-35 0 -35 22zM367 557q0 -199 64.5 -285 t215.5 -86q152 0 216.5 86t64.5 285v344q0 199 -64.5 285t-216.5 86t-216 -86t-64 -285v-344z" />
<glyph unicode="&#xd5;" horiz-adv-x="1294" d="M111 569v299q0 106 11 183t36 141q59 147 183 223t306 76t306 -70.5t184 -208.5q27 -59 37 -132.5t10 -190.5v-299q0 -106 -11.5 -183t-35.5 -141q-59 -147 -183.5 -223t-306.5 -76t-306 71t-183 208q-27 59 -37 133t-10 190zM291 1597v17q0 113 45 164t133 51 q35 0 65.5 -7t83.5 -24l117 -41q12 -4 26.5 -8t30.5 -4q37 0 37 49v10q0 18 7.5 24.5t23.5 6.5h104q31 0 31 -31v-16q0 -113 -45 -164t-133 -51q-35 0 -65.5 7t-81.5 24l-123 41q-12 4 -25.5 8t-28.5 4q-37 0 -36 -49v-11q0 -18 -7.5 -24t-23.5 -6h-105q-31 0 -30 30z M367 557q0 -199 64.5 -285t215.5 -86q152 0 216.5 86t64.5 285v344q0 199 -64.5 285t-216.5 86t-216 -86t-64 -285v-344z" />
<glyph unicode="&#xd6;" horiz-adv-x="1294" d="M111 569v299q0 106 11 183t36 141q59 147 183 223t306 76t306 -70.5t184 -208.5q27 -59 37 -132.5t10 -190.5v-299q0 -106 -11.5 -183t-35.5 -141q-59 -147 -183.5 -223t-306.5 -76t-306 71t-183 208q-27 59 -37 133t-10 190zM309 1702v41q0 55 37 87t98 32t98 -32 t37 -87v-41q0 -53 -37 -86t-98 -33t-98 33t-37 86zM367 557q0 -199 64.5 -285t215.5 -86q152 0 216.5 86t64.5 285v344q0 199 -64.5 285t-216.5 86t-216 -86t-64 -285v-344zM715 1702v41q0 55 36.5 87t98.5 32q61 0 98 -32t37 -87v-41q0 -53 -37 -86t-98 -33t-98 33t-37 86z " />
<glyph unicode="&#xd7;" d="M166 401q0 16 20 37l246 246l-246 248q-20 20 -20 37q0 16 24 41l70 69q25 25 41 25t37 -21l246 -247l247 247q20 20 37 21q16 0 41 -25l70 -69q25 -25 25 -41t-21 -37l-248 -248l244 -246q20 -20 20 -37q0 -16 -24 -41l-70 -69q-25 -25 -41 -25t-37 21l-243 245 l-246 -245q-20 -20 -37 -21q-16 0 -41 25l-70 69q-25 25 -24 41z" />
<glyph unicode="&#xd8;" horiz-adv-x="1294" d="M111 569v299q0 106 11 183t36 141q59 147 183 223t306 76q190 0 324 -82l49 78q12 18 19.5 25.5t17.5 9.5q10 0 20 -4.5t31 -16.5l49 -33q23 -16 32 -25t9 -20q0 -10 -4 -17t-12 -22l-74 -116q8 -14 15 -27.5t14 -28.5q27 -59 37 -132.5t10 -190.5v-299 q0 -106 -11.5 -183t-35.5 -141q-59 -147 -183.5 -223t-306.5 -76q-186 0 -311 74l-41 -68q-12 -18 -19.5 -25t-17.5 -9q-10 0 -20.5 4t-30.5 16l-49 33q-23 16 -32 25.5t-9 19.5t4 17t12 22l62 98q-23 37 -37 72q-27 59 -37 133t-10 190zM358 557q0 -63 7 -113l483 770 q-66 66 -201 66q-156 0 -222.5 -87t-66.5 -292v-344zM457 231q65 -53 190 -53q156 0 222.5 88t66.5 291v344q0 23 -1 44.5t-3 41.5z" />
<glyph unicode="&#xd9;" horiz-adv-x="1294" d="M133 508v891q0 35 12.5 47t53.5 12h118q41 0 53.5 -12t12.5 -47v-889q0 -315 252 -315h24q252 0 252 315v889q0 35 12.5 47t53.5 12h119q41 0 53 -12t12 -47v-891q0 -268 -129 -404.5t-377 -136.5h-16q-248 0 -377 136.5t-129 404.5zM375 1810q0 25 43 25h161q20 0 35 -2 t26 -8t21.5 -18.5t24.5 -32.5l100 -150q8 -10 13.5 -20.5t5.5 -16.5q0 -25 -39 -24h-139q-20 0 -33 2t-23 8t-22.5 18.5t-30.5 34.5l-125 150q-18 25 -18 34z" />
<glyph unicode="&#xda;" horiz-adv-x="1294" d="M133 508v891q0 35 12.5 47t53.5 12h118q41 0 53.5 -12t12.5 -47v-889q0 -315 252 -315h24q252 0 252 315v889q0 35 12.5 47t53.5 12h119q41 0 53 -12t12 -47v-891q0 -268 -129 -404.5t-377 -136.5h-16q-248 0 -377 136.5t-129 404.5zM522 1587q0 6 5 16.5t14 20.5 l100 150q27 41 45 51t61 10h162q43 0 43 -25q0 -10 -18 -34l-125 -150q-18 -23 -30.5 -35t-23 -18t-22.5 -8t-33 -2h-139q-39 0 -39 24z" />
<glyph unicode="&#xdb;" horiz-adv-x="1294" d="M133 508v891q0 35 12.5 47t53.5 12h118q41 0 53.5 -12t12.5 -47v-889q0 -315 252 -315h24q252 0 252 315v889q0 35 12.5 47t53.5 12h119q41 0 53 -12t12 -47v-891q0 -268 -129 -404.5t-377 -136.5h-16q-248 0 -377 136.5t-129 404.5zM309 1585q0 6 6 14.5t25 26.5 l155 150q18 18 30.5 29.5t23 16.5t20.5 7t25 2h106q27 0 44.5 -9.5t54.5 -45.5l155 -150q18 -18 24.5 -26.5t6.5 -14.5q0 -23 -35 -22h-143q-29 0 -45.5 8t-55.5 49l-59 61l-59 -61q-18 -20 -30.5 -31.5t-23 -17.5t-20.5 -7t-27 -1h-143q-35 0 -35 22z" />
<glyph unicode="&#xdc;" horiz-adv-x="1294" d="M133 508v891q0 35 12.5 47t53.5 12h118q41 0 53.5 -12t12.5 -47v-889q0 -315 252 -315h24q252 0 252 315v889q0 35 12.5 47t53.5 12h119q41 0 53 -12t12 -47v-891q0 -268 -129 -404.5t-377 -136.5h-16q-248 0 -377 136.5t-129 404.5zM309 1702v41q0 55 37 87t98 32 t98 -32t37 -87v-41q0 -53 -37 -86t-98 -33t-98 33t-37 86zM715 1702v41q0 55 36.5 87t98.5 32q61 0 98 -32t37 -87v-41q0 -53 -37 -86t-98 -33t-98 33t-37 86z" />
<glyph unicode="&#xdd;" horiz-adv-x="1179" d="M20 1425q0 33 52 33h153q35 0 48.5 -9t27.5 -38l297 -604l293 604q14 29 27.5 38t48.5 9h141q51 0 51 -33q0 -14 -6 -26l-438 -846v-494q0 -37 -13.5 -48t-52.5 -11h-119q-39 0 -52 11.5t-13 47.5v494l-438 846q-6 12 -7 26zM471 1587q0 6 5 16.5t14 20.5l100 150 q27 41 45 51t61 10h162q43 0 43 -25q0 -10 -18 -34l-125 -150q-18 -23 -30.5 -35t-23 -18t-22.5 -8t-33 -2h-139q-39 0 -39 24z" />
<glyph unicode="&#xde;" horiz-adv-x="1148" d="M147 59v1340q0 37 13.5 48t52.5 11h115q39 0 52 -11t13 -48v-199h228q121 0 213 -23.5t153.5 -76.5t92 -137t30.5 -207v-41q0 -223 -124 -327.5t-365 -104.5h-228v-224q0 -37 -13 -48t-52 -11h-115q-39 0 -52.5 11.5t-13.5 47.5zM393 496h228q78 0 124 17t70.5 48 t32.5 72t8 86v29q0 51 -8 94t-32.5 75.5t-71 51t-123.5 18.5h-228v-491z" />
<glyph unicode="&#xdf;" horiz-adv-x="1155" d="M133 59v965q0 242 108.5 352.5t344.5 110.5q211 0 324.5 -85t113.5 -241v-47q0 -100 -46 -168.5t-134 -116.5q219 -88 219 -331v-74q0 -195 -113.5 -309.5t-353.5 -114.5h-25q-31 0 -41 11.5t-10 45.5v88q0 35 10.5 46.5t40.5 11.5q129 0 186.5 54t57.5 198v8 q0 133 -49 187.5t-170 54.5h-25q-31 0 -41 11t-10 46v88q0 35 10.5 46t40.5 11h9q104 0 150 48.5t46 156.5q0 98 -46 144.5t-144 46.5q-117 0 -163 -64.5t-46 -230.5v-949q0 -37 -13.5 -48t-52.5 -11h-112q-39 0 -52.5 11.5t-13.5 47.5z" />
<glyph unicode="&#xe0;" horiz-adv-x="1069" d="M82 322q0 100 32.5 167.5t90 107.5t133.5 57.5t162 17.5q47 0 107.5 -3t113.5 -10v54q0 117 -44 159.5t-136 42.5q-63 0 -104.5 -19t-57.5 -67q-8 -25 -20.5 -31.5t-45.5 -6.5h-133q-33 0 -45 11t-12 34q0 80 63 149q51 55 135.5 86t219.5 31q121 0 200.5 -24.5t128 -72 t67.5 -117t19 -159.5v-399q0 -68 -18 -131.5t-63.5 -112.5t-121 -77.5t-190.5 -28.5h-57q-217 0 -320.5 80.5t-103.5 261.5zM293 1470q0 25 39 25h145q39 0 53.5 -10t40.5 -53l92 -160q16 -29 17 -37q0 -25 -39 -25h-123q-16 0 -27.5 2t-20.5 8.5t-20.5 19.5t-27.5 36 l-113 158q-16 23 -16 36zM319 324q0 -88 47.5 -123t133.5 -35h35q100 0 143 49t43 166v92q-68 8 -119 10t-90 2q-98 0 -145.5 -36.5t-47.5 -124.5z" />
<glyph unicode="&#xe1;" horiz-adv-x="1069" d="M82 322q0 100 32.5 167.5t90 107.5t133.5 57.5t162 17.5q47 0 107.5 -3t113.5 -10v54q0 117 -44 159.5t-136 42.5q-63 0 -104.5 -19t-57.5 -67q-8 -25 -20.5 -31.5t-45.5 -6.5h-133q-33 0 -45 11t-12 34q0 80 63 149q51 55 135.5 86t219.5 31q121 0 200.5 -24.5t128 -72 t67.5 -117t19 -159.5v-399q0 -68 -18 -131.5t-63.5 -112.5t-121 -77.5t-190.5 -28.5h-57q-217 0 -320.5 80.5t-103.5 261.5zM319 324q0 -88 47.5 -123t133.5 -35h35q100 0 143 49t43 166v92q-68 8 -119 10t-90 2q-98 0 -145.5 -36.5t-47.5 -124.5zM416 1235q0 8 16 37 l92 160q27 43 41 53t53 10h146q39 0 39 -25q0 -14 -17 -36l-112 -158q-16 -23 -27.5 -36t-21 -19.5t-20.5 -8.5t-28 -2h-122q-39 0 -39 25z" />
<glyph unicode="&#xe2;" horiz-adv-x="1069" d="M82 322q0 100 32.5 167.5t90 107.5t133.5 57.5t162 17.5q47 0 107.5 -3t113.5 -10v54q0 117 -44 159.5t-136 42.5q-63 0 -104.5 -19t-57.5 -67q-8 -25 -20.5 -31.5t-45.5 -6.5h-133q-33 0 -45 11t-12 34q0 80 63 149q51 55 135.5 86t219.5 31q121 0 200.5 -24.5t128 -72 t67.5 -117t19 -159.5v-399q0 -68 -18 -131.5t-63.5 -112.5t-121 -77.5t-190.5 -28.5h-57q-217 0 -320.5 80.5t-103.5 261.5zM256 1231q0 8 8 18.5t21 22.5l145 164q33 39 48 49t40 10h86q25 0 39 -10t49 -49l145 -164q12 -12 20.5 -22.5t8.5 -18.5q0 -10 -7 -15.5t-30 -5.5 h-112q-18 0 -30.5 1t-22 7.5t-20.5 17.5t-28 32l-55 67l-55 -67q-16 -20 -27.5 -31.5t-21 -18t-21.5 -7.5t-31 -1h-112q-23 0 -30 5.5t-7 15.5zM319 324q0 -88 47.5 -123t133.5 -35h35q100 0 143 49t43 166v92q-68 8 -119 10t-90 2q-98 0 -145.5 -36.5t-47.5 -124.5z" />
<glyph unicode="&#xe3;" horiz-adv-x="1069" d="M82 322q0 100 32.5 167.5t90 107.5t133.5 57.5t162 17.5q47 0 107.5 -3t113.5 -10v54q0 117 -44 159.5t-136 42.5q-63 0 -104.5 -19t-57.5 -67q-8 -25 -20.5 -31.5t-45.5 -6.5h-133q-33 0 -45 11t-12 34q0 80 63 149q51 55 135.5 86t219.5 31q121 0 200.5 -24.5t128 -72 t67.5 -117t19 -159.5v-399q0 -68 -18 -131.5t-63.5 -112.5t-121 -77.5t-190.5 -28.5h-57q-217 0 -320.5 80.5t-103.5 261.5zM207 1251v17q0 109 45 157t133 48q35 0 63.5 -7.5t75.5 -23.5l105 -37q12 -4 25 -8t28 -4q35 0 35 45v8q0 18 7 24.5t23 6.5h101q31 0 30 -31v-16 q0 -109 -45 -157t-133 -48q-35 0 -63.5 7t-75.5 23l-104 37l-25.5 8.5t-28.5 4.5q-35 0 -35 -45v-9q0 -18 -7 -24t-23 -6h-101q-31 0 -30 30zM319 324q0 -88 47.5 -123t133.5 -35h35q100 0 143 49t43 166v92q-68 8 -119 10t-90 2q-98 0 -145.5 -36.5t-47.5 -124.5z" />
<glyph unicode="&#xe4;" horiz-adv-x="1069" d="M82 322q0 100 32.5 167.5t90 107.5t133.5 57.5t162 17.5q47 0 107.5 -3t113.5 -10v54q0 117 -44 159.5t-136 42.5q-63 0 -104.5 -19t-57.5 -67q-8 -25 -20.5 -31.5t-45.5 -6.5h-133q-33 0 -45 11t-12 34q0 80 63 149q51 55 135.5 86t219.5 31q121 0 200.5 -24.5t128 -72 t67.5 -117t19 -159.5v-399q0 -68 -18 -131.5t-63.5 -112.5t-121 -77.5t-190.5 -28.5h-57q-217 0 -320.5 80.5t-103.5 261.5zM242 1350v41q0 55 34.5 84.5t96.5 29.5q61 0 96 -29.5t35 -84.5v-41q0 -53 -35 -84t-96 -31t-96 30.5t-35 84.5zM319 324q0 -88 47.5 -123 t133.5 -35h35q100 0 143 49t43 166v92q-68 8 -119 10t-90 2q-98 0 -145.5 -36.5t-47.5 -124.5zM618 1350v41q0 55 35 84.5t96 29.5t96 -29.5t35 -84.5v-41q0 -53 -35 -84t-96 -31t-96 30.5t-35 84.5z" />
<glyph unicode="&#xe5;" horiz-adv-x="1069" d="M82 322q0 100 32.5 167.5t90 107.5t133.5 57.5t162 17.5q47 0 107.5 -3t113.5 -10v54q0 117 -44 159.5t-136 42.5q-63 0 -104.5 -19t-57.5 -67q-8 -25 -20.5 -31.5t-45.5 -6.5h-133q-33 0 -45 11t-12 34q0 80 63 149q51 55 135.5 86t219.5 31q121 0 200.5 -24.5t128 -72 t67.5 -117t19 -159.5v-399q0 -68 -18 -131.5t-63.5 -112.5t-121 -77.5t-190.5 -28.5h-57q-217 0 -320.5 80.5t-103.5 261.5zM319 324q0 -88 47.5 -123t133.5 -35h35q100 0 143 49t43 166v92q-68 8 -119 10t-90 2q-98 0 -145.5 -36.5t-47.5 -124.5zM340 1380q0 94 61.5 154.5 t159.5 60.5t159.5 -58t61.5 -157q0 -98 -61.5 -155.5t-159.5 -57.5t-159.5 57.5t-61.5 155.5zM469 1380q0 -43 25.5 -68.5t66.5 -25.5t66.5 25.5t25.5 68.5q0 45 -25.5 71t-66.5 26t-66.5 -27t-25.5 -70z" />
<glyph unicode="&#xe6;" horiz-adv-x="1697" d="M82 322q0 100 32.5 167.5t90 107.5t133.5 57.5t162 17.5q47 0 107.5 -3t113.5 -10v54q0 117 -44 159.5t-136 42.5q-63 0 -104.5 -19t-57.5 -67q-8 -25 -20.5 -31.5t-45.5 -6.5h-133q-33 0 -45 11t-12 34q0 80 63 149q51 55 135.5 86t219.5 31q123 0 199.5 -33t117.5 -92 q55 59 130 92t175 33q221 0 334 -120t113 -355v-97q0 -35 -12.5 -47t-53.5 -12h-594v-10q0 -154 50.5 -218.5t166.5 -64.5q150 0 183 107q12 35 55 34h127q35 0 49 -10t14 -37q0 -39 -25.5 -91t-60.5 -87q-57 -59 -147 -91t-201 -32q-215 0 -325 127q-41 -53 -107.5 -85.5 t-165.5 -32.5h-57q-217 0 -320.5 80.5t-103.5 261.5zM319 324q0 -88 47.5 -123t133.5 -35h35q100 0 143 49t43 166v92q-68 8 -119 10t-90 2q-98 0 -145.5 -36.5t-47.5 -124.5zM950 655h412q0 129 -46.5 189.5t-150.5 60.5q-111 0 -161 -57t-54 -193z" />
<glyph unicode="&#xe7;" horiz-adv-x="1058" d="M92 426v201q0 231 113.5 353t331.5 122q229 0 350 -121q88 -88 88 -231q0 -33 -13.5 -44.5t-52.5 -11.5h-106q-35 0 -48.5 9.5t-17.5 33.5q-16 86 -58 123t-134 37q-113 0 -161 -63.5t-48 -217.5v-159q0 -150 45 -214.5t156 -64.5q92 0 138 36t62 122q4 25 17.5 34 t48.5 9h106q39 0 52.5 -11.5t13.5 -43.5q0 -143 -88 -232q-121 -121 -350 -121q-217 0 -331 116t-114 339zM244 -293q0 35 10 46t41 11h86q51 0 71.5 20.5t20.5 78.5q0 10 -2 34.5t-8 77.5l-13 105h185l10 -88q8 -63 12 -114.5t4 -84.5q0 -96 -64.5 -148.5t-182.5 -52.5 h-119q-31 0 -41 11.5t-10 46.5v57z" />
<glyph unicode="&#xe8;" horiz-adv-x="1083" d="M92 444v160q0 240 118 369t339 129t333.5 -120t112.5 -355v-97q0 -35 -12 -47t-53 -12h-594v-10q0 -154 50 -218.5t167 -64.5q150 0 182 107q12 35 56 34h127q35 0 49 -10t14 -37q0 -39 -25.5 -91t-60.5 -87q-57 -59 -147.5 -91t-200.5 -32q-217 0 -336 122t-119 351z M285 1470q0 25 39 25h145q39 0 53.5 -10t40.5 -53l92 -160q16 -29 17 -37q0 -25 -39 -25h-123q-16 0 -27.5 2t-20.5 8.5t-20.5 19.5t-27.5 36l-113 158q-16 23 -16 36zM336 655h412q0 129 -46.5 189.5t-150.5 60.5q-111 0 -161 -57t-54 -193z" />
<glyph unicode="&#xe9;" horiz-adv-x="1083" d="M92 444v160q0 240 118 369t339 129t333.5 -120t112.5 -355v-97q0 -35 -12 -47t-53 -12h-594v-10q0 -154 50 -218.5t167 -64.5q150 0 182 107q12 35 56 34h127q35 0 49 -10t14 -37q0 -39 -25.5 -91t-60.5 -87q-57 -59 -147.5 -91t-200.5 -32q-217 0 -336 122t-119 351z M336 655h412q0 129 -46.5 189.5t-150.5 60.5q-111 0 -161 -57t-54 -193zM408 1235q0 8 16 37l92 160q27 43 41 53t53 10h146q39 0 39 -25q0 -14 -17 -36l-112 -158q-16 -23 -27.5 -36t-21 -19.5t-20.5 -8.5t-28 -2h-122q-39 0 -39 25z" />
<glyph unicode="&#xea;" horiz-adv-x="1083" d="M92 444v160q0 240 118 369t339 129t333.5 -120t112.5 -355v-97q0 -35 -12 -47t-53 -12h-594v-10q0 -154 50 -218.5t167 -64.5q150 0 182 107q12 35 56 34h127q35 0 49 -10t14 -37q0 -39 -25.5 -91t-60.5 -87q-57 -59 -147.5 -91t-200.5 -32q-217 0 -336 122t-119 351z M248 1231q0 8 8 18.5t21 22.5l145 164q33 39 48 49t40 10h86q25 0 39 -10t49 -49l145 -164q12 -12 20.5 -22.5t8.5 -18.5q0 -10 -7 -15.5t-30 -5.5h-112q-18 0 -30.5 1t-22 7.5t-20.5 17.5t-28 32l-55 67l-55 -67q-16 -20 -27.5 -31.5t-21 -18t-21.5 -7.5t-31 -1h-112 q-23 0 -30 5.5t-7 15.5zM336 655h412q0 129 -46.5 189.5t-150.5 60.5q-111 0 -161 -57t-54 -193z" />
<glyph unicode="&#xeb;" horiz-adv-x="1083" d="M92 444v160q0 240 118 369t339 129t333.5 -120t112.5 -355v-97q0 -35 -12 -47t-53 -12h-594v-10q0 -154 50 -218.5t167 -64.5q150 0 182 107q12 35 56 34h127q35 0 49 -10t14 -37q0 -39 -25.5 -91t-60.5 -87q-57 -59 -147.5 -91t-200.5 -32q-217 0 -336 122t-119 351z M234 1350v41q0 55 34.5 84.5t96.5 29.5q61 0 96 -29.5t35 -84.5v-41q0 -53 -35 -84t-96 -31t-96 30.5t-35 84.5zM336 655h412q0 129 -46.5 189.5t-150.5 60.5q-111 0 -161 -57t-54 -193zM610 1350v41q0 55 35 84.5t96 29.5t96 -29.5t35 -84.5v-41q0 -53 -35 -84t-96 -31 t-96 30.5t-35 84.5z" />
<glyph unicode="&#xec;" horiz-adv-x="509" d="M-14 1470q0 25 39 25h145q39 0 53.5 -10t40.5 -53l92 -160q16 -29 17 -37q0 -25 -39 -25h-123q-16 0 -27.5 2t-20.5 8.5t-20.5 19.5t-27.5 36l-113 158q-16 23 -16 36zM133 59v955q0 37 13.5 48t52.5 11h112q39 0 52.5 -11t13.5 -48v-955q0 -37 -13.5 -48t-52.5 -11h-112 q-39 0 -52.5 11.5t-13.5 47.5z" />
<glyph unicode="&#xed;" horiz-adv-x="509" d="M109 1235q0 8 16 37l92 160q27 43 41 53t53 10h146q39 0 39 -25q0 -14 -17 -36l-112 -158q-16 -23 -27.5 -36t-21 -19.5t-20.5 -8.5t-28 -2h-122q-39 0 -39 25zM133 59v955q0 37 13.5 48t52.5 11h112q39 0 52.5 -11t13.5 -48v-955q0 -37 -13.5 -48t-52.5 -11h-112 q-39 0 -52.5 11.5t-13.5 47.5z" />
<glyph unicode="&#xee;" horiz-adv-x="509" d="M-51 1231q0 8 8 18.5t21 22.5l145 164q33 39 48 49t40 10h86q25 0 39 -10t49 -49l145 -164q12 -12 20.5 -22.5t8.5 -18.5q0 -10 -7 -15.5t-30 -5.5h-112q-18 0 -30.5 1t-22 7.5t-20.5 17.5t-28 32l-55 67l-55 -67q-16 -20 -27.5 -31.5t-21 -18t-21.5 -7.5t-31 -1h-112 q-23 0 -30 5.5t-7 15.5zM133 59v955q0 37 13.5 48t52.5 11h112q39 0 52.5 -11t13.5 -48v-955q0 -37 -13.5 -48t-52.5 -11h-112q-39 0 -52.5 11.5t-13.5 47.5z" />
<glyph unicode="&#xef;" horiz-adv-x="509" d="M-65 1350v41q0 55 34.5 84.5t96.5 29.5q61 0 96 -29.5t35 -84.5v-41q0 -53 -35 -84t-96 -31t-96 30.5t-35 84.5zM133 59v955q0 37 13.5 48t52.5 11h112q39 0 52.5 -11t13.5 -48v-955q0 -37 -13.5 -48t-52.5 -11h-112q-39 0 -52.5 11.5t-13.5 47.5zM311 1350v41 q0 55 35 84.5t96 29.5t96 -29.5t35 -84.5v-41q0 -53 -35 -84t-96 -31t-96 30.5t-35 84.5z" />
<glyph unicode="&#xf0;" horiz-adv-x="1114" d="M92 426v117q0 109 30 196.5t83 149t130 95.5t171 34q88 0 161.5 -36t104.5 -95q-10 109 -41 173t-94 111l-92 -79q-14 -12 -21.5 -16.5t-15.5 -4.5q-10 0 -18.5 6t-22.5 23l-16 18q-23 25 -23 39q0 8 4 15.5t21 21.5l61 53l-53 27q-23 10 -32 19.5t-9 23.5q0 10 14 43 l37 74q14 29 23.5 38t21.5 9q14 0 39 -13q47 -23 77 -38t56 -31l76 65q14 12 21.5 16.5t15.5 4.5q10 0 17 -6t24 -23l16 -18q23 -25 23 -39t-25 -37l-49 -43q59 -49 100 -108.5t66.5 -136.5t37 -175t11.5 -223v-234q0 -223 -121 -347t-344 -124q-221 0 -343 119t-122 336z M336 457q0 -279 221 -279t221 279v94q0 135 -56 200.5t-165 65.5q-221 0 -221 -278v-82z" />
<glyph unicode="&#xf1;" horiz-adv-x="1130" d="M133 59v955q0 37 13.5 48t52.5 11h108q39 0 52.5 -11t13.5 -48v-43q47 61 123 96t172 35q174 0 257 -98.5t83 -272.5v-672q0 -37 -13.5 -48t-52.5 -11h-113q-39 0 -52 11.5t-13 47.5v635q0 94 -38 144.5t-138 50.5q-98 0 -154.5 -60.5t-56.5 -169.5v-600q0 -37 -13.5 -48 t-52.5 -11h-112q-39 0 -52.5 11.5t-13.5 47.5zM230 1251v17q0 109 45 157t133 48q35 0 63.5 -7.5t75.5 -23.5l105 -37q12 -4 25 -8t28 -4q35 0 35 45v8q0 18 7 24.5t23 6.5h101q31 0 30 -31v-16q0 -109 -45 -157t-133 -48q-35 0 -63.5 7t-75.5 23l-104 37l-25.5 8.5 t-28.5 4.5q-35 0 -35 -45v-9q0 -18 -7 -24t-23 -6h-101q-31 0 -30 30z" />
<glyph unicode="&#xf2;" horiz-adv-x="1114" d="M92 426v201q0 225 122 350t343 125t343 -119t122 -336v-201q0 -225 -122 -350t-343 -125t-343 119t-122 336zM289 1470q0 25 39 25h145q39 0 53.5 -10t40.5 -53l92 -160q16 -29 17 -37q0 -25 -39 -25h-123q-16 0 -27.5 2t-20.5 8.5t-20.5 19.5t-27.5 36l-113 158 q-16 23 -16 36zM336 457q0 -279 221 -279t221 279v159q0 279 -221 279t-221 -279v-159z" />
<glyph unicode="&#xf3;" horiz-adv-x="1114" d="M92 426v201q0 225 122 350t343 125t343 -119t122 -336v-201q0 -225 -122 -350t-343 -125t-343 119t-122 336zM336 457q0 -279 221 -279t221 279v159q0 279 -221 279t-221 -279v-159zM412 1235q0 8 16 37l92 160q27 43 41 53t53 10h146q39 0 39 -25q0 -14 -17 -36 l-112 -158q-16 -23 -27.5 -36t-21 -19.5t-20.5 -8.5t-28 -2h-122q-39 0 -39 25z" />
<glyph unicode="&#xf4;" horiz-adv-x="1114" d="M92 426v201q0 225 122 350t343 125t343 -119t122 -336v-201q0 -225 -122 -350t-343 -125t-343 119t-122 336zM252 1231q0 8 8 18.5t21 22.5l145 164q33 39 48 49t40 10h86q25 0 39 -10t49 -49l145 -164q12 -12 20.5 -22.5t8.5 -18.5q0 -10 -7 -15.5t-30 -5.5h-112 q-18 0 -30.5 1t-22 7.5t-20.5 17.5t-28 32l-55 67l-55 -67q-16 -20 -27.5 -31.5t-21 -18t-21.5 -7.5t-31 -1h-112q-23 0 -30 5.5t-7 15.5zM336 457q0 -279 221 -279t221 279v159q0 279 -221 279t-221 -279v-159z" />
<glyph unicode="&#xf5;" horiz-adv-x="1114" d="M92 426v201q0 225 122 350t343 125t343 -119t122 -336v-201q0 -225 -122 -350t-343 -125t-343 119t-122 336zM203 1251v17q0 109 45 157t133 48q35 0 63.5 -7.5t75.5 -23.5l105 -37q12 -4 25 -8t28 -4q35 0 35 45v8q0 18 7 24.5t23 6.5h101q31 0 30 -31v-16 q0 -109 -45 -157t-133 -48q-35 0 -63.5 7t-75.5 23l-104 37l-25.5 8.5t-28.5 4.5q-35 0 -35 -45v-9q0 -18 -7 -24t-23 -6h-101q-31 0 -30 30zM336 457q0 -279 221 -279t221 279v159q0 279 -221 279t-221 -279v-159z" />
<glyph unicode="&#xf6;" horiz-adv-x="1114" d="M92 426v201q0 225 122 350t343 125t343 -119t122 -336v-201q0 -225 -122 -350t-343 -125t-343 119t-122 336zM238 1350v41q0 55 34.5 84.5t96.5 29.5q61 0 96 -29.5t35 -84.5v-41q0 -53 -35 -84t-96 -31t-96 30.5t-35 84.5zM336 457q0 -279 221 -279t221 279v159 q0 279 -221 279t-221 -279v-159zM614 1350v41q0 55 35 84.5t96 29.5t96 -29.5t35 -84.5v-41q0 -53 -35 -84t-96 -31t-96 30.5t-35 84.5z" />
<glyph unicode="&#xf7;" d="M115 639v98q0 35 9 46.5t42 11.5h835q33 0 42.5 -11.5t9.5 -46.5v-98q0 -35 -10.5 -46t-41.5 -11h-835q-31 0 -41 11t-10 46zM457 330v37q0 53 33.5 83.5t93.5 30.5q59 0 93 -30.5t34 -83.5v-37q0 -53 -34 -84t-93 -31t-93 30.5t-34 84.5zM457 1010v37q0 53 33.5 83.5 t93.5 30.5q59 0 93 -30.5t34 -83.5v-37q0 -53 -34 -84t-93 -31t-93 30.5t-34 84.5z" />
<glyph unicode="&#xf8;" horiz-adv-x="1114" d="M92 426v201q0 225 122 350t343 125q82 0 149.5 -17.5t122.5 -50.5l50 68q12 18 21 24.5t18 6.5q18 0 49 -23l22 -16q14 -10 24.5 -20.5t10.5 -24.5q0 -10 -5 -19.5t-13 -21.5l-60 -82q76 -111 76 -279v-201q0 -225 -122 -350t-343 -125q-156 0 -262 60l-43 -58 q-12 -18 -21.5 -24t-17.5 -6q-18 0 -49 22l-23 17q-14 10 -24.5 20t-10.5 25q0 16 19 41l49 69q-82 113 -82 289zM319 440q0 -55 9 -94l381 522q-60 43 -152 43q-238 0 -238 -278v-193zM416 199q55 -37 141 -37q238 0 238 280v193q0 41 -7 76z" />
<glyph unicode="&#xf9;" horiz-adv-x="1120" d="M123 342v672q0 37 13.5 48t51.5 11h113q39 0 52.5 -11t13.5 -48v-635q0 -94 36.5 -144.5t135.5 -50.5q96 0 150 60.5t54 169.5v600q0 37 13.5 48t52.5 11h113q39 0 52 -11t13 -48v-955q0 -37 -13 -48t-52 -11h-109q-39 0 -52 11.5t-13 47.5v41q-49 -61 -123 -95t-166 -34 q-172 0 -254 98.5t-82 272.5zM287 1470q0 25 39 25h145q39 0 53.5 -10t40.5 -53l92 -160q16 -29 17 -37q0 -25 -39 -25h-123q-16 0 -27.5 2t-20.5 8.5t-20.5 19.5t-27.5 36l-113 158q-16 23 -16 36z" />
<glyph unicode="&#xfa;" horiz-adv-x="1120" d="M123 342v672q0 37 13.5 48t51.5 11h113q39 0 52.5 -11t13.5 -48v-635q0 -94 36.5 -144.5t135.5 -50.5q96 0 150 60.5t54 169.5v600q0 37 13.5 48t52.5 11h113q39 0 52 -11t13 -48v-955q0 -37 -13 -48t-52 -11h-109q-39 0 -52 11.5t-13 47.5v41q-49 -61 -123 -95t-166 -34 q-172 0 -254 98.5t-82 272.5zM410 1235q0 8 16 37l92 160q27 43 41 53t53 10h146q39 0 39 -25q0 -14 -17 -36l-112 -158q-16 -23 -27.5 -36t-21 -19.5t-20.5 -8.5t-28 -2h-122q-39 0 -39 25z" />
<glyph unicode="&#xfb;" horiz-adv-x="1120" d="M123 342v672q0 37 13.5 48t51.5 11h113q39 0 52.5 -11t13.5 -48v-635q0 -94 36.5 -144.5t135.5 -50.5q96 0 150 60.5t54 169.5v600q0 37 13.5 48t52.5 11h113q39 0 52 -11t13 -48v-955q0 -37 -13 -48t-52 -11h-109q-39 0 -52 11.5t-13 47.5v41q-49 -61 -123 -95t-166 -34 q-172 0 -254 98.5t-82 272.5zM250 1231q0 8 8 18.5t21 22.5l145 164q33 39 48 49t40 10h86q25 0 39 -10t49 -49l145 -164q12 -12 20.5 -22.5t8.5 -18.5q0 -10 -7 -15.5t-30 -5.5h-112q-18 0 -30.5 1t-22 7.5t-20.5 17.5t-28 32l-55 67l-55 -67q-16 -20 -27.5 -31.5t-21 -18 t-21.5 -7.5t-31 -1h-112q-23 0 -30 5.5t-7 15.5z" />
<glyph unicode="&#xfc;" horiz-adv-x="1120" d="M123 342v672q0 37 13.5 48t51.5 11h113q39 0 52.5 -11t13.5 -48v-635q0 -94 36.5 -144.5t135.5 -50.5q96 0 150 60.5t54 169.5v600q0 37 13.5 48t52.5 11h113q39 0 52 -11t13 -48v-955q0 -37 -13 -48t-52 -11h-109q-39 0 -52 11.5t-13 47.5v41q-49 -61 -123 -95t-166 -34 q-172 0 -254 98.5t-82 272.5zM236 1350v41q0 55 34.5 84.5t96.5 29.5q61 0 96 -29.5t35 -84.5v-41q0 -53 -35 -84t-96 -31t-96 30.5t-35 84.5zM612 1350v41q0 55 35 84.5t96 29.5t96 -29.5t35 -84.5v-41q0 -53 -35 -84t-96 -31t-96 30.5t-35 84.5z" />
<glyph unicode="&#xfd;" horiz-adv-x="1003" d="M14 1036q0 37 49 37h138q29 0 43 -11t26 -44l244 -664l221 668q10 31 24.5 41t45.5 10h135q49 0 49 -35q0 -12 -6 -26l-373 -1028q-37 -98 -71.5 -163t-79.5 -102.5t-106.5 -53t-151.5 -15.5h-49q-31 0 -41.5 11t-10.5 46v96q0 35 10.5 46.5t41.5 11.5h16q51 0 84 6 t55.5 23.5t40 47t35.5 76.5l16 39l-379 957q-6 14 -6 26zM365 1235q0 8 16 37l92 160q27 43 41 53t53 10h146q39 0 39 -25q0 -14 -17 -36l-112 -158q-16 -23 -27.5 -36t-21 -19.5t-20.5 -8.5t-28 -2h-122q-39 0 -39 25z" />
<glyph unicode="&#xfe;" horiz-adv-x="1153" d="M133 -291v1690q0 37 13.5 48t52.5 11h112q39 0 52.5 -11t13.5 -48v-387q90 90 262 90q205 0 313.5 -117t108.5 -338v-172q0 -225 -108.5 -345t-313.5 -120q-172 0 -262 92v-393q0 -35 -12.5 -47t-53.5 -12h-112q-41 0 -53.5 12t-12.5 47zM373 500q0 -283 221 -283 q223 0 223 281v129q0 141 -53 205.5t-170 64.5q-221 0 -221 -283v-114z" />
<glyph unicode="&#xff;" horiz-adv-x="1003" d="M14 1036q0 37 49 37h138q29 0 43 -11t26 -44l244 -664l221 668q10 31 24.5 41t45.5 10h135q49 0 49 -35q0 -12 -6 -26l-373 -1028q-37 -98 -71.5 -163t-79.5 -102.5t-106.5 -53t-151.5 -15.5h-49q-31 0 -41.5 11t-10.5 46v96q0 35 10.5 46.5t41.5 11.5h16q51 0 84 6 t55.5 23.5t40 47t35.5 76.5l16 39l-379 957q-6 14 -6 26zM191 1350v41q0 55 34.5 84.5t96.5 29.5q61 0 96 -29.5t35 -84.5v-41q0 -53 -35 -84t-96 -31t-96 30.5t-35 84.5zM567 1350v41q0 55 35 84.5t96 29.5t96 -29.5t35 -84.5v-41q0 -53 -35 -84t-96 -31t-96 30.5t-35 84.5 z" />
<glyph unicode="&#x152;" horiz-adv-x="1927" d="M111 602v234q0 106 11 183t36 140q59 147 183 223t306 76h1102q37 0 48 -13t11 -52v-90q0 -39 -11 -52.5t-48 -13.5h-580v-377h527q37 0 48 -13t11 -52v-90q0 -39 -11 -52.5t-48 -13.5h-527v-418h588q37 0 48.5 -13t11.5 -52v-90q0 -39 -11.5 -52.5t-48.5 -13.5h-1110 q-182 0 -306 70.5t-183 208.5q-27 59 -37 132.5t-10 190.5zM367 590q0 -199 69.5 -284t231.5 -85h252v1016h-252q-162 0 -231.5 -85t-69.5 -284v-278z" />
<glyph unicode="&#x153;" horiz-adv-x="1769" d="M92 426v201q0 225 122 350t343 125q113 0 199 -36t143 -101q115 137 336 137t333.5 -120t112.5 -355v-97q0 -35 -12 -47t-53 -12h-594v-10q0 -154 50 -218.5t167 -64.5q150 0 182 107q12 35 56 34h127q35 0 49 -10t14 -37q0 -39 -25.5 -91t-60.5 -87q-57 -59 -147.5 -91 t-200.5 -32q-223 0 -340 135q-117 -135 -336 -135q-221 0 -343 119t-122 336zM336 457q0 -279 221 -279t221 279v159q0 279 -221 279t-221 -279v-159zM1022 655h412q0 129 -46.5 189.5t-150.5 60.5q-111 0 -161 -57t-54 -193z" />
<glyph unicode="&#x178;" horiz-adv-x="1179" d="M20 1425q0 33 52 33h153q35 0 48.5 -9t27.5 -38l297 -604l293 604q14 29 27.5 38t48.5 9h141q51 0 51 -33q0 -14 -6 -26l-438 -846v-494q0 -37 -13.5 -48t-52.5 -11h-119q-39 0 -52 11.5t-13 47.5v494l-438 846q-6 12 -7 26zM258 1702v41q0 55 37 87t98 32t98 -32t37 -87 v-41q0 -53 -37 -86t-98 -33t-98 33t-37 86zM664 1702v41q0 55 36.5 87t98.5 32q61 0 98 -32t37 -87v-41q0 -53 -37 -86t-98 -33t-98 33t-37 86z" />
<glyph unicode="&#x2c6;" horiz-adv-x="1024" d="M207 1231q0 8 8 18.5t21 22.5l145 164q33 39 48 49t40 10h86q25 0 39 -10t49 -49l145 -164q12 -12 20.5 -22.5t8.5 -18.5q0 -10 -7 -15.5t-30 -5.5h-112q-18 0 -30.5 1t-22 7.5t-20.5 17.5t-28 32l-55 67l-55 -67q-16 -20 -27.5 -31.5t-21 -18t-21.5 -7.5t-31 -1h-112 q-23 0 -30 5.5t-7 15.5z" />
<glyph unicode="&#x2dc;" horiz-adv-x="1024" d="M176 1251v17q0 109 45 157t133 48q35 0 63.5 -7.5t75.5 -23.5l105 -37q12 -4 25 -8t28 -4q35 0 35 45v8q0 18 7 24.5t23 6.5h101q31 0 30 -31v-16q0 -109 -45 -157t-133 -48q-35 0 -63.5 7t-75.5 23l-104 37l-25.5 8.5t-28.5 4.5q-35 0 -35 -45v-9q0 -18 -7 -24t-23 -6 h-101q-31 0 -30 30z" />
<glyph unicode="&#x2000;" horiz-adv-x="931" />
<glyph unicode="&#x2001;" horiz-adv-x="1862" />
<glyph unicode="&#x2002;" horiz-adv-x="931" />
<glyph unicode="&#x2003;" horiz-adv-x="1862" />
<glyph unicode="&#x2004;" horiz-adv-x="620" />
<glyph unicode="&#x2005;" horiz-adv-x="465" />
<glyph unicode="&#x2006;" horiz-adv-x="310" />
<glyph unicode="&#x2007;" horiz-adv-x="310" />
<glyph unicode="&#x2008;" horiz-adv-x="232" />
<glyph unicode="&#x2009;" horiz-adv-x="372" />
<glyph unicode="&#x200a;" horiz-adv-x="103" />
<glyph unicode="&#x2010;" horiz-adv-x="794" d="M78 494v112q0 39 11 52.5t48 13.5h520q37 0 48.5 -13.5t11.5 -52.5v-112q0 -39 -11.5 -52.5t-48.5 -13.5h-520q-37 0 -48 13.5t-11 52.5z" />
<glyph unicode="&#x2011;" horiz-adv-x="794" d="M78 494v112q0 39 11 52.5t48 13.5h520q37 0 48.5 -13.5t11.5 -52.5v-112q0 -39 -11.5 -52.5t-48.5 -13.5h-520q-37 0 -48 13.5t-11 52.5z" />
<glyph unicode="&#x2012;" horiz-adv-x="794" d="M78 494v112q0 39 11 52.5t48 13.5h520q37 0 48.5 -13.5t11.5 -52.5v-112q0 -39 -11.5 -52.5t-48.5 -13.5h-520q-37 0 -48 13.5t-11 52.5z" />
<glyph unicode="&#x2013;" horiz-adv-x="1024" d="M0 512v86q0 39 11.5 52.5t47.5 13.5h906q37 0 48 -13.5t11 -52.5v-86q0 -39 -11.5 -52.5t-47.5 -13.5h-906q-37 0 -48 13.5t-11 52.5z" />
<glyph unicode="&#x2014;" horiz-adv-x="2048" d="M0 512v86q0 39 11.5 52.5t47.5 13.5h1930q37 0 48 -13.5t11 -52.5v-86q0 -39 -11.5 -52.5t-47.5 -13.5h-1930q-37 0 -48 13.5t-11 52.5z" />
<glyph unicode="&#x2018;" horiz-adv-x="569" d="M133 981v49q0 41 16.5 87t59.5 130l92 174q20 39 37.5 50.5t56.5 11.5h76q37 0 37 -25q0 -8 -4 -18t-8 -21l-121 -262q41 -12 65.5 -50t24.5 -93v-33q0 -70 -45 -110t-121 -40t-121 40t-45 110z" />
<glyph unicode="&#x2019;" horiz-adv-x="569" d="M61 856q0 8 4.5 18.5t8.5 20.5l121 262q-41 12 -66 50t-25 93v33q0 70 45 110t121 40t121 -40t45 -110v-49q0 -41 -16.5 -87t-59.5 -130l-92 -174q-10 -20 -19 -32.5t-19.5 -18.5t-23.5 -8.5t-32 -2.5h-76q-37 0 -37 25z" />
<glyph unicode="&#x201a;" horiz-adv-x="569" d="M78 -301q0 8 4 18.5t8 20.5l121 262q-41 12 -65.5 50t-24.5 93v33q0 70 45 110t121 40t121 -40t45 -110v-49q0 -41 -16.5 -87t-59.5 -130l-92 -174q-10 -20 -19.5 -32.5t-19.5 -19t-23.5 -8.5t-32.5 -2h-75q-37 0 -37 25z" />
<glyph unicode="&#x201c;" horiz-adv-x="1013" d="M133 981v49q0 41 16.5 87t59.5 130l92 174q20 39 37.5 50.5t56.5 11.5h76q37 0 37 -25q0 -8 -4 -18t-8 -21l-121 -262q41 -12 65.5 -50t24.5 -93v-33q0 -70 -45 -110t-121 -40t-121 40t-45 110zM577 981v49q0 41 16.5 87t59.5 130l92 174q20 39 37.5 50.5t56.5 11.5h76 q37 0 37 -25q0 -8 -4 -18t-8 -21l-121 -262q41 -12 65.5 -50t24.5 -93v-33q0 -70 -45 -110t-121 -40t-121 40t-45 110z" />
<glyph unicode="&#x201d;" horiz-adv-x="1013" d="M61 856q0 8 4.5 18.5t8.5 20.5l121 262q-41 12 -66 50t-25 93v33q0 70 45 110t121 40t121 -40t45 -110v-49q0 -41 -16.5 -87t-59.5 -130l-92 -174q-10 -20 -19 -32.5t-19.5 -18.5t-23.5 -8.5t-32 -2.5h-76q-37 0 -37 25zM505 856q0 8 4.5 18.5t8.5 20.5l121 262 q-41 12 -66 50t-25 93v33q0 70 45 110t121 40t121 -40t45 -110v-49q0 -41 -16.5 -87t-59.5 -130l-92 -174q-10 -20 -19 -32.5t-19.5 -18.5t-23.5 -8.5t-32 -2.5h-76q-37 0 -37 25z" />
<glyph unicode="&#x201e;" horiz-adv-x="1013" d="M78 -301q0 8 4 18.5t8 20.5l121 262q-41 12 -65.5 50t-24.5 93v33q0 70 45 110t121 40t121 -40t45 -110v-49q0 -41 -16.5 -87t-59.5 -130l-92 -174q-10 -20 -19.5 -32.5t-19.5 -19t-23.5 -8.5t-32.5 -2h-75q-37 0 -37 25zM522 -301q0 8 4 18.5t8 20.5l121 262 q-41 12 -65.5 50t-24.5 93v33q0 70 45 110t121 40t121 -40t45 -110v-49q0 -41 -16.5 -87t-59.5 -130l-92 -174q-10 -20 -19.5 -32.5t-19.5 -19t-23.5 -8.5t-32.5 -2h-75q-37 0 -37 25z" />
<glyph unicode="&#x2022;" horiz-adv-x="983" d="M195 537q0 61 23.5 115.5t63.5 94t94 63.5t116 24q61 0 115.5 -24t94 -63.5t63 -94t23.5 -115.5t-23.5 -115.5t-63 -94.5t-94 -63.5t-115.5 -23.5t-115.5 23.5t-94.5 63.5t-63.5 94.5t-23.5 115.5z" />
<glyph unicode="&#x2026;" horiz-adv-x="2048" d="M213 127v49q0 70 45 110t121 40t121 -40t45 -110v-49q0 -70 -45.5 -110t-120.5 -40q-76 0 -121 40t-45 110zM858 127v49q0 70 45 110t121 40t121 -40t45 -110v-49q0 -70 -45.5 -110t-120.5 -40q-76 0 -121 40t-45 110zM1503 127v49q0 70 45 110t121 40t121 -40t45 -110 v-49q0 -70 -45.5 -110t-120.5 -40q-76 0 -121 40t-45 110z" />
<glyph unicode="&#x202f;" horiz-adv-x="372" />
<glyph unicode="&#x2039;" horiz-adv-x="628" d="M72 532v107q0 16 6 27.5t22 25.5l398 326q14 12 28 12t22.5 -9t8.5 -34v-123q0 -35 -9 -50t-50 -48l-213 -180l213 -180q20 -16 32.5 -27.5t18.5 -21t7 -20.5t1 -30v-123q0 -25 -8 -34t-23 -9q-14 0 -28 13l-398 325q-16 14 -22 25.5t-6 27.5z" />
<glyph unicode="&#x203a;" horiz-adv-x="628" d="M72 184v123q0 18 1 29.5t7 21t18.5 20.5t32.5 28l213 180l-213 180q-41 33 -50 48t-9 50v123q0 25 8 34t22 9t29 -12l397 -326q16 -14 22.5 -25.5t6.5 -27.5v-107q0 -16 -6 -27t-23 -26l-397 -325q-14 -12 -29 -13q-14 0 -22 9.5t-8 33.5z" />
<glyph unicode="&#x205f;" horiz-adv-x="465" />
<glyph unicode="&#x20ac;" d="M39 502v78q0 25 24 24h95v156h-95q-25 0 -24 24v78q0 25 24 25h95q4 78 17 137t34 111q53 129 162.5 199.5t275.5 70.5q227 0 348 -121q57 -59 83 -123.5t26 -156.5q0 -33 -13.5 -44.5t-52.5 -11.5h-116q-37 0 -50.5 10.5t-15.5 40.5q-4 100 -55 146.5t-162 46.5 q-121 0 -175 -70.5t-58 -234.5h313q25 0 24 -25v-78q0 -25 -24 -24h-313v-156h313q25 0 24 -24v-78q0 -25 -24 -25h-313q4 -160 59 -227.5t172 -67.5q215 0 223 197q2 31 15.5 41t50.5 10h112q39 0 52.5 -11t13.5 -44q0 -94 -27.5 -159.5t-87.5 -125.5q-127 -123 -366 -123 q-160 0 -265.5 65.5t-154.5 188.5q-20 51 -31.5 111.5t-13.5 144.5h-95q-25 0 -24 25z" />
<glyph unicode="&#x2122;" horiz-adv-x="1622" d="M66 1354v55q0 25 9 37t38 12h551q29 0 38 -12t9 -37v-55q0 -27 -9.5 -37t-37.5 -10h-191v-596q0 -33 -11 -42.5t-46 -9.5h-58q-35 0 -46 10.5t-11 41.5v594h-188q-29 0 -38 11t-9 38zM821 711v696q0 31 11.5 41t46.5 10h51q35 0 48 -9t30 -40l161 -342l164 342 q16 31 29.5 40t48.5 9h51q35 0 46.5 -9t11.5 -38v-700q0 -33 -11.5 -42.5t-46.5 -9.5h-49q-35 0 -46 10.5t-11 41.5v411l-101 -198q-12 -25 -21 -34t-40 -9h-49q-31 0 -40 8t-22 35l-98 198v-411q0 -33 -11 -42.5t-46 -9.5h-49q-35 0 -46.5 10.5t-11.5 41.5z" />
<glyph unicode="&#x25fc;" horiz-adv-x="1075" d="M0 0v1075h1075v-1075h-1075z" />
<glyph unicode="&#xfb01;" horiz-adv-x="1226" d="M55 930v86q0 35 10.5 46t40.5 11h107v68q0 88 27.5 148.5t77 98t117 54t145.5 16.5h100q31 0 41 -11t10 -46v-86q0 -35 -10 -46.5t-41 -11.5h-80q-78 0 -110.5 -27.5t-32.5 -105.5v-51h182q31 0 41 -11t10 -46v-86q0 -35 -10 -46.5t-41 -11.5h-182v-813q0 -37 -13.5 -48 t-52.5 -11h-112q-39 0 -52.5 11.5t-13.5 47.5v813h-107q-31 0 -41 11.5t-10 46.5zM834 1319v43q0 59 36.5 91t102.5 32t103.5 -32t37.5 -91v-43q0 -59 -37.5 -91t-103.5 -32t-102.5 32t-36.5 91zM850 59v955q0 37 13.5 48t52.5 11h112q39 0 52.5 -11t13.5 -48v-955 q0 -37 -13.5 -48t-52.5 -11h-112q-39 0 -52.5 11.5t-13.5 47.5z" />
<glyph unicode="&#xfb02;" horiz-adv-x="1226" d="M55 930v86q0 35 10.5 46t40.5 11h107v68q0 88 27.5 148.5t77 98t117 54t145.5 16.5h100q31 0 41 -11t10 -46v-86q0 -35 -10 -46.5t-41 -11.5h-80q-78 0 -110.5 -27.5t-32.5 -105.5v-51h182q31 0 41 -11t10 -46v-86q0 -35 -10 -46.5t-41 -11.5h-182v-813q0 -37 -13.5 -48 t-52.5 -11h-112q-39 0 -52.5 11.5t-13.5 47.5v813h-107q-31 0 -41 11.5t-10 46.5zM850 59v1340q0 37 13.5 48t52.5 11h112q39 0 52.5 -11t13.5 -48v-1340q0 -37 -13.5 -48t-52.5 -11h-112q-39 0 -52.5 11.5t-13.5 47.5z" />
<glyph unicode="&#xfb03;" horiz-adv-x="1961" d="M55 930v86q0 35 10.5 46t40.5 11h107v68q0 88 27.5 148.5t77 98t117 54t145.5 16.5h100q31 0 41 -11t10 -46v-86q0 -35 -10 -46.5t-41 -11.5h-80q-78 0 -110.5 -27.5t-32.5 -105.5v-51h182q31 0 41 -11t10 -46v-86q0 -35 -10 -46.5t-41 -11.5h-182v-813q0 -37 -13.5 -48 t-52.5 -11h-112q-39 0 -52.5 11.5t-13.5 47.5v813h-107q-31 0 -41 11.5t-10 46.5zM790 930v86q0 35 10.5 46t40.5 11h107v68q0 88 27.5 148.5t77 98t117 54t145.5 16.5h100q31 0 41 -11t10 -46v-86q0 -35 -10 -46.5t-41 -11.5h-80q-78 0 -110.5 -27.5t-32.5 -105.5v-51h182 q31 0 41 -11t10 -46v-86q0 -35 -10 -46.5t-41 -11.5h-182v-813q0 -37 -13.5 -48t-52.5 -11h-112q-39 0 -52.5 11.5t-13.5 47.5v813h-107q-31 0 -41 11.5t-10 46.5zM1569 1319v43q0 59 36.5 91t102.5 32t103.5 -32t37.5 -91v-43q0 -59 -37.5 -91t-103.5 -32t-102.5 32 t-36.5 91zM1585 59v955q0 37 13.5 48t52.5 11h112q39 0 52.5 -11t13.5 -48v-955q0 -37 -13.5 -48t-52.5 -11h-112q-39 0 -52.5 11.5t-13.5 47.5z" />
<glyph unicode="&#xfb04;" horiz-adv-x="1961" d="M55 930v86q0 35 10.5 46t40.5 11h107v68q0 88 27.5 148.5t77 98t117 54t145.5 16.5h100q31 0 41 -11t10 -46v-86q0 -35 -10 -46.5t-41 -11.5h-80q-78 0 -110.5 -27.5t-32.5 -105.5v-51h182q31 0 41 -11t10 -46v-86q0 -35 -10 -46.5t-41 -11.5h-182v-813q0 -37 -13.5 -48 t-52.5 -11h-112q-39 0 -52.5 11.5t-13.5 47.5v813h-107q-31 0 -41 11.5t-10 46.5zM790 930v86q0 35 10.5 46t40.5 11h107v68q0 88 27.5 148.5t77 98t117 54t145.5 16.5h100q31 0 41 -11t10 -46v-86q0 -35 -10 -46.5t-41 -11.5h-80q-78 0 -110.5 -27.5t-32.5 -105.5v-51h182 q31 0 41 -11t10 -46v-86q0 -35 -10 -46.5t-41 -11.5h-182v-813q0 -37 -13.5 -48t-52.5 -11h-112q-39 0 -52.5 11.5t-13.5 47.5v813h-107q-31 0 -41 11.5t-10 46.5zM1585 59v1340q0 37 13.5 48t52.5 11h112q39 0 52.5 -11t13.5 -48v-1340q0 -37 -13.5 -48t-52.5 -11h-112 q-39 0 -52.5 11.5t-13.5 47.5z" />
</font>
</defs>
</svg>
